VERSION	0.00.00	1.03.00
FES_MODE	0
BPM_DEF	172.000	172.000	172.000	172.000
MET_DEF	4	4
RESOLUTION	384
CLK_DEF	384
COMPATIBLE_CODE	MA2

BPM	0	0	172.000
MET	0	0	4	4

BRK	2	96	0
BRK	2	96	7
BRK	2	288	2
BRK	2	288	3
BST	3	0	4
SCL	3	0	4	96	192	7
BRK	3	0	6
TAP	4	0	0
TAP	4	48	0
TAP	4	96	7
TAP	4	144	7
STR	4	192	1
SI_	4	192	1	96	48	4
STR	4	288	5
SCR	4	288	5	96	192	2
TAP	5	288	3
TAP	5	288	4
TAP	6	0	5
TAP	6	96	1
TAP	6	144	0
TAP	6	144	1
TAP	6	240	6
TAP	6	288	6
TAP	6	288	7
STR	7	0	6
SI_	7	0	6	96	48	2
STR	7	192	0
SI_	7	192	0	96	48	4
TAP	8	0	7
TAP	8	48	7
TAP	8	96	0
TAP	8	144	0
STR	8	192	6
SI_	8	192	6	96	48	3
STR	8	288	2
SCL	8	288	2	96	192	5
TAP	9	288	3
TAP	9	288	4
TAP	10	0	2
TAP	10	0	3
TAP	10	96	3
TAP	10	96	5
TAP	10	192	2
TAP	10	192	3
STR	10	288	3
SXR	10	288	3	96	288	0
STR	10	288	4
SXL	10	288	4	96	288	7
TAP	12	0	0
TAP	12	0	7
TAP	12	48	0
TAP	12	48	7
TAP	12	144	2
TAP	12	144	7
TAP	12	240	0
TAP	12	240	5
TAP	12	288	0
TAP	12	288	5
STR	13	0	7
SI_	13	0	7	96	48	3
HLD	13	192	2	96
TAP	13	288	3
HLD	14	0	5	96
TAP	14	96	4
TAP	14	192	3
TAP	14	192	4
TAP	14	288	2
TAP	14	288	5
HLD	15	0	1	96
TAP	15	96	0
HLD	15	192	6	96
TAP	15	288	7
HLD	16	0	1	96
TAP	16	96	0
TAP	16	192	6
TAP	16	192	7
TAP	16	288	0
TAP	16	288	5
STR	17	0	0
SI_	17	0	0	96	48	4
HLD	17	192	5	96
TAP	17	288	4
HLD	18	0	2	96
TAP	18	96	3
TAP	18	192	3
TAP	18	192	4
TAP	18	288	2
TAP	18	288	5
HLD	19	0	6	96
TAP	19	96	7
HLD	19	192	1	96
TAP	19	288	0
HLD	20	0	6	96
TAP	20	96	7
TAP	20	192	0
TAP	20	192	1
TAP	20	288	2
TAP	20	288	7
TAP	21	0	0
STR	21	0	7
SI_	21	0	7	96	48	3
HLD	21	192	2	96
HLD	21	288	3	96
HLD	22	0	4	96
HLD	22	96	5	96
TAP	22	192	6
TAP	22	288	0
TAP	22	288	7
HLD	23	0	1	96
TAP	23	96	0
HLD	23	192	6	96
HLD	23	288	7	96
HLD	24	0	0	96
HLD	24	96	1	96
TAP	24	192	2
TAP	24	288	3
TAP	24	288	4
HLD	25	0	6	96
HLD	25	96	5	96
HLD	25	192	4	96
HLD	25	288	3	96
HLD	26	0	2	96
HLD	26	96	1	96
TAP	26	192	0
TAP	26	288	0
TAP	26	288	7
HLD	27	0	2	96
HLD	27	0	3	96
HLD	27	144	4	96
HLD	27	144	5	96
TAP	28	0	2
TAP	28	0	3
TAP	28	96	3
TAP	28	96	5
TAP	28	192	5
TAP	28	192	7
BRK	28	288	0
BRK	28	288	7
STR	29	0	1
SCR	29	0	1	96	192	4
STR	30	0	5
SCR	30	0	5	96	192	0
STR	31	0	1
SXL	31	0	1	96	288	5
TAP	32	192	3
TAP	32	192	4
STR	33	0	3
SCL	33	0	3	96	96	0
HLD	33	0	4	192
HLD	34	0	3	192
STR	34	0	4
SCR	34	0	4	96	96	7
STR	35	0	2
SCL	35	0	2	96	96	7
HLD	35	0	3	192
HLD	36	0	4	192
STR	36	0	5
SCR	36	0	5	96	96	0
TAP	37	0	2
TAP	37	96	2
TAP	37	96	3
TAP	37	192	5
TAP	37	288	4
TAP	37	288	5
TAP	38	0	0
TAP	38	0	7
TAP	38	96	1
TAP	38	96	6
TAP	38	192	2
TAP	38	192	5
STR	38	288	3
SXR	38	288	3	96	288	0
STR	38	288	4
SXL	38	288	4	96	288	7
TAP	40	0	0
TAP	40	0	7
TAP	40	96	3
TAP	40	96	4
BRK	40	192	1
BRK	40	192	6
TAP	41	0	3
TAP	41	48	3
TAP	41	96	5
TAP	41	144	5
STR	41	192	2
SI_	41	192	2	96	48	5
STR	41	288	6
SCR	41	288	6	96	192	3
TAP	42	288	1
TAP	42	288	5
TAP	43	0	2
TAP	43	0	3
TAP	43	96	4
TAP	43	144	3
TAP	43	144	5
TAP	43	240	1
TAP	43	288	0
TAP	43	288	2
STR	44	0	7
SI_	44	0	7	96	48	2
SI_	44	0	7	96	48	4
TAP	44	192	1
TAP	44	192	5
TAP	44	240	1
TAP	44	240	5
TAP	44	288	1
TAP	44	288	5
TAP	45	0	4
TAP	45	48	4
TAP	45	96	2
TAP	45	144	2
STR	45	192	5
SI_	45	192	5	96	48	2
STR	45	288	1
SCL	45	288	1	96	192	4
TAP	46	288	2
TAP	46	288	6
TAP	47	0	5
TAP	47	48	3
TAP	47	96	5
TAP	47	192	2
TAP	47	240	4
TAP	47	288	2
STR	48	0	2
SXR	48	0	2	96	192	3
STR	48	0	5
SXL	48	0	5	96	192	4
TAP	49	0	3
TAP	49	0	4
TAP	49	48	3
TAP	49	48	4
TAP	49	144	0
TAP	49	144	5
TAP	49	240	2
TAP	49	240	7
TAP	49	288	2
TAP	49	288	7
STR	50	0	1
SI_	50	0	1	96	48	4
STR	50	192	5
SI_	50	192	5	96	48	0
STR	51	0	1
SCR	51	0	1	96	48	4
STR	51	192	5
SCR	51	192	5	96	48	0
TAP	52	0	1
TAP	52	96	0
TAP	52	96	2
TAP	52	192	6
TAP	52	288	5
TAP	52	288	7
TAP	53	0	0
TAP	53	0	1
TAP	53	96	0
TAP	53	96	2
TAP	53	192	6
TAP	53	192	7
TAP	53	288	5
TAP	53	288	7
STR	54	0	0
SI_	54	0	0	96	48	5
STR	54	192	7
SI_	54	192	7	96	48	2
STR	55	0	3
SI_	55	0	3	96	48	6
STR	55	192	4
SI_	55	192	4	96	48	1
HLD	56	0	3	288
TAP	56	144	7
HLD	56	192	7	96
TAP	57	0	3
TAP	57	0	4
TAP	57	72	3
TAP	57	72	4
TAP	57	144	3
TAP	57	144	4
BRK	57	192	1
BRK	57	192	6
TAP	58	0	5
TAP	58	48	5
TAP	58	96	1
TAP	58	144	1
STR	58	192	4
SI_	58	192	4	96	48	7
STR	58	288	0
SXL	58	288	0	96	192	3
TAP	59	288	2
TAP	59	288	6
TAP	60	0	4
TAP	60	0	5
TAP	60	96	2
TAP	60	96	3
TAP	60	144	1
TAP	60	144	4
TAP	60	240	4
TAP	60	240	5
TAP	60	288	3
TAP	60	288	6
STR	61	0	0
SI_	61	0	0	96	48	3
SI_	61	0	0	96	48	5
TAP	61	192	2
TAP	61	192	6
TAP	61	240	2
TAP	61	240	6
TAP	61	288	2
TAP	61	288	6
TAP	62	0	1
TAP	62	48	1
TAP	62	96	6
TAP	62	144	6
STR	62	192	3
SI_	62	192	3	96	48	0
STR	62	288	7
SXR	62	288	7	96	192	4
TAP	63	288	1
TAP	63	288	5
TAP	64	0	2
STR	64	0	3
SI_	64	0	3	96	48	0
STR	64	192	4
SI_	64	192	4	96	48	7
TAP	64	192	5
STR	65	0	2
SCL	65	0	2	96	192	5
STR	65	0	3
SUL	65	0	3	96	192	4
BRK	66	0	7
BRK	66	96	7
BRK	66	192	0
BRK	66	192	7
BRK	66	288	0
BRK	66	288	7
TAP	67	0	2
TAP	67	48	2
TAP	67	96	6
TAP	67	144	6
STR	67	192	3
SI_	67	192	3	96	48	6
STR	67	288	7
SXL	67	288	7	96	192	3
TAP	68	288	1
TAP	68	288	5
TAP	69	0	3
TAP	69	0	4
TAP	69	96	6
TAP	69	96	7
TAP	69	144	0
TAP	69	144	5
TAP	69	240	0
TAP	69	240	1
TAP	69	288	2
TAP	69	288	7
STR	70	0	7
SI_	70	0	7	96	48	3
SI_	70	0	7	96	48	5
STR	70	192	0
SI_	70	192	0	96	48	2
SI_	70	192	0	96	48	4
TAP	71	0	5
TAP	71	48	5
TAP	71	96	1
TAP	71	144	1
STR	71	192	4
SI_	71	192	4	96	48	1
STR	71	288	0
SXR	71	288	0	96	192	4
TAP	72	288	2
TAP	72	288	6
STR	73	0	4
SI_	73	0	4	96	48	0
TAP	73	0	5
TAP	73	192	2
STR	73	192	3
SI_	73	192	3	96	48	7
STR	74	0	0
SCL	74	0	0	96	192	3
HLD	74	0	1	288
TAP	75	0	4
TAP	75	0	5
TAP	75	48	4
TAP	75	48	5
TAP	75	144	2
TAP	75	144	6
TAP	75	240	0
TAP	75	240	1
TAP	75	288	0
TAP	75	288	1
TAP	76	0	6
STR	76	0	7
SI_	76	0	7	96	48	4
STR	76	192	0
SI_	76	192	0	96	48	3
TAP	76	192	1
TAP	77	0	6
STR	77	0	7
SI_	77	0	7	96	48	4
STR	77	192	0
SI_	77	192	0	96	48	3
TAP	77	192	1
TAP	78	0	6
STR	78	0	7
SI_	78	0	7	96	48	3
STR	78	192	0
SI_	78	192	0	96	48	4
TAP	78	192	1
TAP	79	0	2
TAP	79	48	2
TAP	79	96	4
TAP	79	144	4
TAP	79	192	3
TAP	79	240	3
TAP	79	288	5
HLD	80	0	2	96
HLD	80	96	0	96
HLD	80	192	7	96
TAP	80	288	5
HLD	81	0	5	96
HLD	81	96	7	96
HLD	81	192	0	96
TAP	81	288	2
STR	82	0	2
SI_	82	0	2	96	48	7
TAP	82	0	3
TAP	82	192	4
STR	82	192	5
SI_	82	192	5	96	48	0
TAP	83	0	0
TAP	83	0	7
TAP	83	48	0
TAP	83	48	7
TAP	83	96	0
TAP	83	96	7
STR	83	192	1
SI_	83	192	1	96	48	4
STR	83	192	6
SI_	83	192	6	96	48	3
TAP	84	0	2
TAP	84	0	3
TAP	84	96	0
TAP	84	96	1
STR	84	192	6
SI_	84	192	6	96	48	4
STR	84	192	7
SI_	84	192	7	96	48	3
TAP	85	0	4
TAP	85	0	5
TAP	85	96	6
TAP	85	96	7
STR	85	192	0
SI_	85	192	0	96	48	4
STR	85	192	1
SI_	85	192	1	96	48	3
STR	86	0	6
SI_	86	0	6	96	48	3
STR	86	0	7
SI_	86	0	7	96	48	2
STR	86	192	0
SI_	86	192	0	96	48	5
STR	86	192	1
SI_	86	192	1	96	48	4
TAP	87	0	3
TAP	87	0	4
TAP	87	48	3
TAP	87	48	4
TAP	87	96	3
TAP	87	96	4
TAP	87	192	2
TAP	87	192	5
BRK	87	288	0
BRK	87	288	7
TAP	88	0	0
HLD	88	48	0	48
TAP	88	96	7
HLD	88	144	7	48
TAP	88	192	0
HLD	88	240	0	48
TAP	88	288	7
HLD	88	336	7	48
TAP	89	0	3
HLD	89	48	3	48
TAP	89	96	4
HLD	89	144	4	48
TAP	89	192	3
HLD	89	240	3	48
TAP	89	288	4
HLD	89	336	4	48
TAP	90	0	1
HLD	90	48	1	48
TAP	90	96	2
HLD	90	144	2	48
TAP	90	192	1
HLD	90	240	1	48
TAP	90	288	2
HLD	90	336	2	48
TAP	91	0	0
HLD	91	48	0	48
TAP	91	96	4
HLD	91	144	4	48
TAP	91	192	0
HLD	91	240	0	48
TAP	91	288	4
HLD	91	336	4	48
TAP	92	0	3
HLD	92	48	3	48
TAP	92	96	7
HLD	92	144	7	48
TAP	92	192	3
HLD	92	240	3	48
TAP	92	288	7
HLD	92	336	7	48
TAP	93	0	5
HLD	93	48	5	48
TAP	93	96	6
HLD	93	144	6	48
TAP	93	192	5
HLD	93	240	5	48
TAP	93	288	6
HLD	93	336	6	48
TAP	94	0	0
HLD	94	48	0	48
TAP	94	96	1
HLD	94	144	1	48
TAP	94	192	2
HLD	94	240	2	48
TAP	94	288	3
HLD	94	336	3	48
TAP	95	0	4
HLD	95	48	4	48
TAP	95	96	5
HLD	95	144	5	48
TAP	95	192	6
HLD	95	240	6	48
TAP	95	288	7
BRK	96	0	0
BRK	96	96	0
BRK	96	192	0
BRK	96	192	7
BRK	96	288	0
BRK	96	288	7
HLD	97	0	1	96
HLD	97	96	3	96
HLD	97	192	4	96
TAP	97	288	6
HLD	98	0	6	96
HLD	98	96	4	96
HLD	98	192	3	96
TAP	98	288	1
TAP	99	0	3
TAP	99	0	4
TAP	99	96	5
TAP	99	96	6
TAP	99	192	0
TAP	99	192	7
TAP	99	288	1
TAP	99	288	2
STR	100	0	3
SXR	100	0	3	96	192	0
STR	100	0	4
SXL	100	0	4	96	192	7
TAP	101	0	1
TAP	101	0	6
TAP	101	48	1
TAP	101	48	6
TAP	101	144	3
TAP	101	144	4
TAP	101	192	2
STR	101	192	5
SCL	101	192	5	96	48	2

T_REC_TAP	311
T_REC_BRK	25
T_REC_XTP	0
T_REC_HLD	79
T_REC_XHO	0
T_REC_STR	74
T_REC_BST	1
T_REC_XST	0
T_REC_TTP	0
T_REC_THO	0
T_REC_SLD	79
T_REC_ALL	569
T_NUM_TAP	385
T_NUM_BRK	26
T_NUM_HLD	79
T_NUM_SLD	79
T_NUM_ALL	569
T_JUDGE_TAP	411
T_JUDGE_HLD	143
T_JUDGE_SLD	79
T_JUDGE_ALL	633
TTM_EACHPAIRS	138
TTM_SCR_TAP	192500
TTM_SCR_BRK	67600
TTM_SCR_HLD	79000
TTM_SCR_SLD	118500
TTM_SCR_ALL	457600
TTM_SCR_S	441350
TTM_SCR_SS	455000
TTM_RAT_ACV	10057

