VERSION	0.00.00	1.03.00
FES_MODE	0
BPM_DEF	172.000	172.000	172.000	172.000
MET_DEF	4	4
RESOLUTION	384
CLK_DEF	384
COMPATIBLE_CODE	MA2

BPM	0	0	172.000
MET	0	0	4	4

TAP	4	0	2
TAP	4	96	2
TAP	4	96	3
TAP	4	192	5
STR	4	288	4
SI_	4	288	4	96	192	0
TAP	4	288	5
TAP	5	288	7
TAP	6	0	6
TAP	6	96	5
TAP	6	192	3
TAP	6	192	4
TAP	7	0	3
TAP	7	96	4
TAP	7	192	2
TAP	7	192	5
TAP	8	0	5
TAP	8	96	4
TAP	8	96	5
TAP	8	192	2
TAP	8	288	2
STR	8	288	3
SI_	8	288	3	96	192	7
TAP	9	288	0
TAP	10	0	0
TAP	10	0	7
TAP	10	96	0
TAP	10	96	7
TAP	10	192	1
TAP	10	192	6
STR	10	288	1
SCR	10	288	1	96	288	6
TAP	10	288	6
HLD	12	0	0	96
HLD	12	0	7	96
BRK	12	192	1
BRK	12	192	6
HLD	13	0	3	96
HLD	13	0	4	96
TAP	13	192	2
TAP	13	288	2
TAP	14	0	3
TAP	14	96	2
TAP	14	192	2
TAP	14	192	3
TAP	15	0	6
TAP	15	96	6
TAP	15	192	7
TAP	16	0	1
TAP	16	96	1
TAP	16	192	0
HLD	17	0	0	96
HLD	17	0	7	96
TAP	17	192	6
TAP	17	288	6
TAP	18	0	7
TAP	18	96	6
TAP	18	192	6
TAP	18	192	7
TAP	19	0	2
TAP	19	96	2
TAP	19	192	3
TAP	20	0	4
TAP	20	96	3
BRK	20	192	2
BRK	20	192	5
HLD	21	0	3	96
HLD	21	0	4	96
TAP	21	192	5
TAP	21	288	5
TAP	22	0	4
TAP	22	96	5
TAP	22	192	4
TAP	22	192	6
TAP	23	0	1
TAP	23	96	1
TAP	23	192	0
TAP	23	192	1
TAP	24	0	7
TAP	24	96	0
TAP	24	192	1
TAP	24	192	6
TAP	25	0	3
TAP	25	0	4
TAP	25	96	3
TAP	25	96	4
TAP	25	192	5
TAP	25	288	5
TAP	26	0	6
TAP	26	96	6
TAP	26	192	5
TAP	26	192	7
STR	27	0	0
SI_	27	0	0	96	144	3
STR	27	0	7
SI_	27	0	7	96	144	4
TAP	28	0	3
TAP	28	0	4
TAP	28	96	3
TAP	28	96	4
TAP	28	192	2
TAP	28	192	5
HLD	29	0	5	192
TAP	29	192	4
HLD	30	0	2	192
TAP	30	192	3
HLD	31	0	4	192
HLD	31	192	3	192
TAP	32	0	4
TAP	32	192	2
TAP	32	192	5
STR	33	0	3
SI_	33	0	3	96	144	0
STR	34	0	7
SI_	34	0	7	96	144	4
STR	35	0	3
SCL	35	0	3	96	144	0
TAP	36	0	0
TAP	36	0	7
TAP	36	96	0
TAP	36	96	7
TAP	36	192	1
TAP	36	192	6
TAP	37	0	5
TAP	37	96	4
TAP	37	192	2
TAP	37	192	3
TAP	38	0	1
TAP	38	96	2
TAP	38	192	3
TAP	38	192	4
STR	38	288	3
SI_	38	288	3	96	240	0
STR	38	288	4
SI_	38	288	4	96	240	7
TAP	40	0	7
TAP	40	96	0
BRK	40	192	1
BRK	40	192	6
TAP	41	0	5
TAP	41	96	4
TAP	41	96	5
TAP	41	192	2
TAP	41	288	2
STR	41	288	3
SI_	41	288	3	96	192	7
TAP	42	288	0
TAP	43	0	0
TAP	43	96	0
TAP	43	192	1
TAP	43	192	7
TAP	44	0	7
TAP	44	96	7
TAP	44	192	0
TAP	44	192	6
TAP	45	0	2
TAP	45	96	2
TAP	45	96	3
TAP	45	192	5
STR	45	288	4
SI_	45	288	4	96	192	0
TAP	45	288	5
TAP	46	288	7
TAP	47	0	7
TAP	47	96	0
TAP	47	192	1
STR	47	288	0
SI_	47	288	0	96	192	5
STR	47	288	1
SI_	47	288	1	96	192	4
TAP	49	0	2
TAP	49	0	3
TAP	49	96	4
TAP	49	96	5
BRK	49	192	3
BRK	49	192	6
HLD	50	0	6	192
HLD	50	0	7	192
HLD	51	0	0	192
HLD	51	0	1	192
TAP	52	0	4
TAP	52	96	5
TAP	52	192	6
TAP	52	192	7
TAP	53	0	3
TAP	53	96	2
TAP	53	192	1
STR	53	288	0
SI_	53	288	0	96	240	3
STR	53	288	7
SI_	53	288	7	96	240	4
TAP	55	0	2
TAP	55	0	5
TAP	55	96	1
TAP	55	96	6
TAP	55	192	0
TAP	55	192	7
STR	55	288	0
SXL	55	288	0	96	384	3
STR	55	288	7
SXR	55	288	7	96	384	4
BRK	57	192	2
BRK	57	192	5
TAP	58	0	1
TAP	58	96	0
TAP	58	96	1
TAP	58	192	6
TAP	58	288	6
STR	58	288	7
SCR	58	288	7	96	192	3
TAP	59	288	4
TAP	60	0	5
TAP	60	96	4
TAP	60	192	3
TAP	60	192	6
TAP	61	0	2
TAP	61	96	3
TAP	61	192	1
TAP	61	192	4
TAP	62	0	6
TAP	62	96	6
TAP	62	96	7
TAP	62	192	1
STR	62	288	0
SCL	62	288	0	96	192	4
TAP	62	288	1
TAP	63	288	3
TAP	64	0	2
TAP	64	96	1
TAP	64	192	0
TAP	64	288	0
STR	64	288	7
SCL	64	288	7	96	288	2
TAP	66	0	0
TAP	66	0	1
TAP	66	96	2
TAP	66	96	7
TAP	66	192	3
TAP	66	192	6
BRK	66	288	4
BRK	66	288	5
TAP	67	0	2
TAP	67	96	1
TAP	67	96	3
TAP	67	192	5
STR	67	288	4
SCL	67	288	4	96	192	0
TAP	67	288	6
TAP	68	288	7
TAP	69	0	6
TAP	69	96	6
TAP	69	96	7
TAP	69	192	0
TAP	69	192	5
TAP	70	0	1
TAP	70	96	0
TAP	70	96	1
TAP	70	192	2
TAP	70	192	7
TAP	71	0	5
TAP	71	96	4
TAP	71	96	6
TAP	71	192	2
TAP	71	288	1
STR	71	288	3
SCR	71	288	3	96	192	7
TAP	72	288	0
TAP	73	0	1
TAP	73	96	2
TAP	73	96	3
TAP	73	192	4
TAP	73	192	5
TAP	73	288	3
STR	73	288	6
SCR	73	288	6	96	288	3
TAP	75	0	4
TAP	75	0	5
TAP	75	96	3
TAP	75	96	4
BRK	75	192	2
BRK	75	192	5
HLD	76	0	2	96
HLD	76	0	3	96
HLD	76	192	4	96
HLD	76	192	5	96
TAP	77	0	2
TAP	77	0	3
TAP	77	96	2
TAP	77	96	3
TAP	77	192	1
TAP	77	192	4
HLD	78	0	6	96
HLD	78	0	7	96
HLD	78	192	0	96
HLD	78	192	1	96
TAP	79	0	0
TAP	79	0	7
TAP	79	96	0
TAP	79	96	7
TAP	79	192	1
TAP	79	192	6
TAP	80	0	2
TAP	80	96	2
TAP	80	192	2
TAP	80	192	3
TAP	80	288	1
TAP	80	288	4
TAP	81	0	5
TAP	81	96	4
TAP	81	192	3
TAP	81	192	6
TAP	82	0	6
TAP	82	0	7
TAP	82	96	6
TAP	82	96	7
TAP	82	192	0
TAP	82	192	1
STR	82	288	0
SCL	82	288	0	96	192	5
STR	82	288	1
SCR	82	288	1	96	192	4
HLD	84	0	6	192
TAP	84	192	7
HLD	85	0	1	192
TAP	85	192	0
HLD	86	0	0	192
HLD	86	0	7	192
TAP	87	0	0
TAP	87	0	7
TAP	87	96	0
TAP	87	96	7
TAP	87	192	1
TAP	87	192	6
BRK	87	288	0
TAP	88	0	7
TAP	88	96	6
TAP	88	192	5
TAP	88	288	4
TAP	89	0	3
TAP	89	96	2
TAP	89	192	1
TAP	89	288	0
TAP	90	0	6
TAP	90	0	7
TAP	90	96	6
TAP	90	96	7
TAP	90	192	0
TAP	90	192	1
TAP	90	288	0
TAP	90	288	1
TAP	91	0	0
TAP	91	0	7
TAP	91	96	1
TAP	91	96	6
TAP	91	192	2
TAP	91	192	5
TAP	92	0	4
TAP	92	96	5
TAP	92	192	6
TAP	92	288	7
TAP	93	0	0
TAP	93	96	1
TAP	93	192	2
TAP	93	288	3
TAP	94	0	4
TAP	94	0	5
TAP	94	96	4
TAP	94	96	5
TAP	94	192	2
TAP	94	192	3
TAP	94	288	2
TAP	94	288	3
TAP	95	0	0
TAP	95	0	1
TAP	95	96	0
TAP	95	96	1
TAP	95	192	6
TAP	95	192	7
TAP	95	288	6
TAP	95	288	7
TAP	96	0	4
TAP	96	0	5
TAP	96	96	3
TAP	96	96	6
TAP	96	192	2
TAP	96	192	7
BRK	96	288	0
BRK	96	288	1
TAP	97	0	7
TAP	97	96	0
TAP	97	96	6
TAP	97	192	1
TAP	97	192	5
TAP	98	0	0
TAP	98	96	1
TAP	98	96	7
TAP	98	192	2
TAP	98	192	6
TAP	99	0	4
TAP	99	96	3
TAP	99	96	5
TAP	99	192	2
TAP	99	192	6
TAP	100	0	3
TAP	100	96	2
TAP	100	96	4
TAP	100	192	1
TAP	100	192	5
TAP	101	0	3
TAP	101	0	4
TAP	101	96	2
TAP	101	96	5
TAP	101	192	1
TAP	101	192	6
BRK	101	288	0
BRK	101	288	7

T_REC_TAP	317
T_REC_BRK	19
T_REC_XTP	0
T_REC_HLD	28
T_REC_XHO	0
T_REC_STR	26
T_REC_BST	0
T_REC_XST	0
T_REC_TTP	0
T_REC_THO	0
T_REC_SLD	26
T_REC_ALL	416
T_NUM_TAP	343
T_NUM_BRK	19
T_NUM_HLD	28
T_NUM_SLD	26
T_NUM_ALL	416
T_JUDGE_TAP	362
T_JUDGE_HLD	80
T_JUDGE_SLD	26
T_JUDGE_ALL	468
TTM_EACHPAIRS	132
TTM_SCR_TAP	171500
TTM_SCR_BRK	49400
TTM_SCR_HLD	28000
TTM_SCR_SLD	39000
TTM_SCR_ALL	287900
TTM_SCR_S	277450
TTM_SCR_SS	286000
TTM_RAT_ACV	10066

