VERSION	0.00.00	1.03.00
FES_MODE	0
BPM_DEF	172.000	172.000	172.000	172.000
MET_DEF	4	4
RESOLUTION	384
CLK_DEF	384
COMPATIBLE_CODE	MA2

BPM	0	0	172.000
MET	0	0	4	4

TAP	4	0	0
TAP	4	192	0
HLD	5	0	0	192
TAP	6	0	6
TAP	6	0	7
TAP	6	192	6
TAP	6	192	7
HLD	7	0	6	192
HLD	7	0	7	192
TAP	8	0	7
TAP	8	192	7
HLD	9	0	7	192
TAP	10	0	0
TAP	10	0	1
TAP	10	192	0
TAP	10	192	1
HLD	11	0	0	192
HLD	11	0	1	192
TAP	13	0	1
TAP	13	192	1
TAP	14	0	2
TAP	14	96	2
TAP	14	192	2
TAP	15	0	2
TAP	15	0	3
TAP	15	192	2
TAP	15	192	3
TAP	16	0	4
TAP	16	96	3
TAP	16	192	4
TAP	17	0	5
TAP	17	192	5
TAP	18	0	6
TAP	18	96	6
TAP	18	192	6
TAP	19	0	6
TAP	19	0	7
TAP	19	192	6
TAP	19	192	7
TAP	20	0	0
TAP	20	96	0
TAP	20	192	0
TAP	20	192	7
TAP	21	0	6
TAP	21	192	6
TAP	22	0	5
TAP	22	96	5
TAP	22	192	5
TAP	23	0	4
TAP	23	0	5
TAP	23	192	4
TAP	23	192	5
TAP	24	0	3
TAP	24	96	4
TAP	24	192	3
TAP	25	0	2
TAP	25	192	2
TAP	26	0	1
TAP	26	96	1
TAP	26	192	1
TAP	27	0	0
TAP	27	0	1
TAP	27	192	0
TAP	27	192	1
TAP	28	0	7
TAP	28	96	0
BRK	28	192	7
STR	29	0	6
SI_	29	0	6	96	288	2
HLD	31	0	0	384
STR	33	0	1
SI_	33	0	1	96	288	5
HLD	35	0	7	384
TAP	37	0	0
TAP	37	192	0
TAP	38	0	7
TAP	38	96	7
TAP	38	192	7
STR	39	0	0
SI_	39	0	0	96	288	3
STR	39	0	7
SI_	39	0	7	96	288	4
TAP	41	0	3
TAP	41	96	3
TAP	41	192	3
HLD	42	0	4	192
HLD	42	0	5	192
TAP	43	0	6
TAP	43	96	6
TAP	43	192	6
TAP	44	0	6
TAP	44	0	7
TAP	44	192	6
TAP	44	192	7
TAP	45	0	0
TAP	45	96	0
TAP	45	192	0
HLD	46	0	0	192
HLD	46	0	1	192
TAP	47	0	2
TAP	47	0	3
TAP	47	192	4
TAP	47	192	5
STR	48	0	3
SI_	48	0	3	96	288	0
STR	48	0	4
SI_	48	0	4	96	288	7
TAP	50	0	0
TAP	50	192	0
TAP	51	0	1
TAP	51	0	7
TAP	51	192	1
TAP	51	192	7
TAP	52	0	7
TAP	52	192	7
TAP	53	0	0
TAP	53	0	6
TAP	53	192	0
TAP	53	192	6
STR	54	0	0
SI_	54	0	0	96	288	4
BRK	56	0	0
BRK	56	0	7
TAP	58	0	0
TAP	58	96	0
TAP	58	192	0
HLD	59	0	6	192
HLD	59	0	7	192
TAP	60	0	5
TAP	60	96	5
TAP	60	192	4
TAP	60	288	4
TAP	61	0	4
TAP	61	0	5
TAP	61	192	4
TAP	61	192	5
TAP	62	0	3
TAP	62	96	3
TAP	62	192	2
TAP	62	288	2
HLD	63	0	2	192
HLD	63	0	3	192
TAP	64	0	0
TAP	64	0	1
TAP	64	192	6
TAP	64	192	7
STR	65	0	0
SI_	65	0	0	96	288	3
STR	65	0	7
SI_	65	0	7	96	288	4
TAP	67	0	7
TAP	67	96	7
TAP	67	192	7
HLD	68	0	0	192
HLD	68	0	1	192
TAP	69	0	2
TAP	69	96	2
TAP	69	192	3
TAP	69	288	3
TAP	70	0	2
TAP	70	0	3
TAP	70	192	2
TAP	70	192	3
TAP	71	0	4
TAP	71	96	4
TAP	71	192	5
TAP	71	288	5
HLD	72	0	4	192
HLD	72	0	5	192
TAP	73	0	6
TAP	73	0	7
TAP	73	192	0
TAP	73	192	1
STR	74	0	0
SI_	74	0	0	96	288	3
STR	74	0	7
SI_	74	0	7	96	288	4
TAP	76	0	6
TAP	76	0	7
TAP	76	192	0
TAP	76	192	1
TAP	77	0	7
TAP	77	96	0
TAP	77	192	7
TAP	78	0	0
TAP	78	0	1
TAP	78	192	6
TAP	78	192	7
HLD	79	0	0	192
TAP	80	0	7
TAP	80	96	7
TAP	80	192	6
TAP	80	288	6
TAP	81	0	5
TAP	81	96	5
TAP	81	192	3
TAP	81	192	4
TAP	82	0	3
TAP	82	0	4
TAP	82	192	3
TAP	82	192	4
HLD	83	0	2	192
HLD	83	0	5	192
TAP	84	0	2
TAP	84	96	2
TAP	84	192	2
TAP	84	192	3
TAP	85	0	5
TAP	85	96	5
TAP	85	192	4
TAP	85	192	5
TAP	86	0	3
TAP	86	96	3
TAP	86	192	4
TAP	86	288	4
HLD	87	0	2	192
HLD	87	0	5	192
STR	88	0	1
SI_	88	0	1	96	288	6
STR	90	0	5
SI_	90	0	5	96	288	2
STR	92	0	0
SI_	92	0	0	96	288	3
STR	94	0	4
SI_	94	0	4	96	288	7
TAP	96	0	0
TAP	96	96	0
BRK	96	192	0
TAP	97	0	7
TAP	97	96	7
TAP	97	192	7
HLD	98	0	7	192
TAP	99	0	0
TAP	99	0	1
TAP	99	192	6
TAP	99	192	7
TAP	100	0	0
TAP	100	96	0
TAP	100	192	7
TAP	100	288	7
HLD	101	0	0	288

T_REC_TAP	180
T_REC_BRK	4
T_REC_XTP	0
T_REC_HLD	27
T_REC_XHO	0
T_REC_STR	15
T_REC_BST	0
T_REC_XST	0
T_REC_TTP	0
T_REC_THO	0
T_REC_SLD	15
T_REC_ALL	241
T_NUM_TAP	195
T_NUM_BRK	4
T_NUM_HLD	27
T_NUM_SLD	15
T_NUM_ALL	241
T_JUDGE_TAP	199
T_JUDGE_HLD	118
T_JUDGE_SLD	15
T_JUDGE_ALL	332
TTM_EACHPAIRS	55
TTM_SCR_TAP	97500
TTM_SCR_BRK	10400
TTM_SCR_HLD	27000
TTM_SCR_SLD	22500
TTM_SCR_ALL	157400
TTM_SCR_S	152300
TTM_SCR_SS	157000
TTM_RAT_ACV	10025

