VERSION	0.00.00	1.03.00
FES_MODE	0
BPM_DEF	230.000	230.000	230.000	230.000
MET_DEF	4	4
RESOLUTION	384
CLK_DEF	384
COMPATIBLE_CODE	MA2

BPM	0	0	230.000
MET	0	0	4	4

TAP	2	0	2
TAP	2	32	3
TAP	2	64	2
TAP	2	96	5
TAP	2	128	4
TAP	2	160	5
TAP	2	192	3
TAP	2	224	4
TAP	2	256	3
TAP	2	288	4
STR	3	0	2
SI_	3	0	2	96	48	0
TAP	3	0	3
TAP	3	96	4
STR	3	192	5
SI_	3	192	5	96	48	7
TAP	3	288	4
STR	4	0	3
SI_	4	0	3	96	48	0
TAP	4	96	4
TAP	4	192	7
TAP	4	256	0
TAP	4	256	7
TAP	4	352	1
HLD	4	352	6	512
TAP	5	96	4
TAP	5	288	4
TAP	6	96	4
TAP	6	256	2
TAP	6	288	3
TAP	6	352	3
TAP	7	0	2
TAP	7	0	4
TAP	7	96	4
TAP	7	96	5
TAP	7	192	3
TAP	7	192	6
HLD	7	256	7	96
HLD	7	352	0	128
TAP	8	96	1
TAP	8	192	6
TAP	8	192	7
TAP	8	288	4
TAP	8	288	5
TAP	9	0	2
TAP	9	0	3
TAP	9	96	4
TAP	9	96	5
TAP	9	192	3
TAP	9	192	6
TAP	9	256	3
TAP	9	256	6
TAP	9	352	1
TAP	9	352	4
TAP	10	64	4
TAP	10	96	3
TAP	10	160	3
TAP	10	192	6
TAP	10	256	6
TAP	10	288	4
TAP	10	352	4
HLD	11	0	7	288
TAP	11	96	5
TAP	11	192	2
TAP	11	288	5
TAP	11	352	7
HLD	12	0	0	288
TAP	12	96	2
TAP	12	192	5
TAP	12	288	2
TAP	12	352	0
TAP	13	0	7
TAP	13	96	2
TAP	13	128	4
TAP	13	160	3
TAP	13	192	5
TAP	13	288	0
TAP	13	288	7
STR	14	0	4
SI_	14	0	4	96	48	1
TAP	14	0	5
TAP	14	96	7
STR	14	192	5
SI_	14	192	5	96	48	0
TAP	14	288	2
STR	15	0	3
SCL	15	0	3	96	48	0
TAP	15	96	6
STR	15	192	4
SCR	15	192	4	96	48	7
TAP	15	288	1
STR	16	0	3
SCL	16	0	3	96	48	0
TAP	16	96	6
TAP	16	192	4
TAP	16	256	4
TAP	16	288	3
TAP	16	352	3
TAP	17	0	2
TAP	17	0	5
TAP	17	192	2
TAP	17	192	3
TAP	17	256	2
TAP	17	256	3
TAP	17	352	0
TAP	17	352	5
HLD	18	96	1	96
TAP	18	192	0
TAP	18	288	2
TAP	18	288	7
TAP	19	0	3
TAP	19	0	5
TAP	19	96	7
TAP	19	192	4
TAP	19	192	6
TAP	19	288	0
TAP	20	0	7
HLD	20	64	7	96
HLD	20	160	6	96
TAP	20	256	5
TAP	20	352	5
TAP	21	0	4
TAP	21	96	0
TAP	21	192	1
TAP	21	192	3
STR	21	288	7
SCL	21	288	7	96	48	4
STR	22	0	0
SI_	22	0	0	96	48	4
STR	22	96	7
SI_	22	96	7	96	48	3
TAP	22	192	0
TAP	22	288	0
TAP	23	0	3
TAP	23	0	5
TAP	23	96	7
TAP	23	192	4
TAP	23	192	6
TAP	23	288	0
TAP	24	0	7
HLD	24	64	7	96
HLD	24	160	6	96
TAP	24	256	5
TAP	24	352	5
TAP	25	0	3
TAP	25	32	4
TAP	25	64	3
TAP	25	96	4
TAP	25	128	2
TAP	25	160	3
TAP	25	192	2
TAP	25	256	2
TAP	25	256	4
TAP	25	352	3
TAP	25	352	6
TAP	26	64	7
TAP	26	96	0
TAP	26	192	1
TAP	26	192	3
TAP	26	288	3
TAP	26	288	4
BRK	27	0	1
BRK	27	0	6
TAP	28	192	3
TAP	28	224	4
TAP	28	256	3
TAP	28	288	5
HLD	29	0	4	96
TAP	29	96	3
TAP	29	192	3
TAP	29	192	4
STR	29	256	2
SCL	29	256	2	96	224	5
TAP	29	256	5
TAP	30	288	0
TAP	30	288	7
HLD	31	0	6	96
HLD	31	96	4	96
STR	31	192	3
SCR	31	192	3	96	48	6
HLD	32	0	1	96
HLD	32	96	3	96
STR	32	192	4
SCL	32	192	4	96	48	1
STR	33	0	7
SCL	33	0	7	96	48	4
TAP	33	96	2
STR	33	192	0
SCR	33	192	0	96	48	3
STR	33	288	5
SCR	33	288	5	96	192	2
TAP	34	256	3
TAP	34	288	4
HLD	35	0	1	96
HLD	35	96	3	96
STR	35	192	4
SCL	35	192	4	96	48	1
HLD	36	0	6	96
HLD	36	96	4	96
STR	36	192	3
SCR	36	192	3	96	48	6
STR	37	0	0
SCR	37	0	0	96	48	3
TAP	37	96	6
STR	37	192	4
SCR	37	192	4	96	48	7
HLD	37	288	2	96
HLD	38	0	0	96
HLD	38	96	7	96
TAP	38	192	5
TAP	38	256	5
TAP	38	352	1
TAP	38	352	7
TAP	39	64	2
TAP	39	96	3
TAP	39	160	3
TAP	39	192	2
TAP	39	256	1
TAP	39	256	4
HLD	39	352	5	128
HLD	40	96	7	96
HLD	40	192	0	96
STR	40	288	2
SCR	40	288	2	96	48	5
TAP	41	0	7
STR	41	96	6
SUL	41	96	6	96	48	2
TAP	41	192	0
STR	41	288	1
SCL	41	288	1	96	48	6
HLD	42	0	5	256
TAP	42	256	2
STR	43	0	1
SCR	43	0	1	96	48	3
TAP	43	96	0
TAP	43	192	7
TAP	43	256	2
TAP	43	256	7
TAP	43	352	0
STR	44	0	7
SCL	44	0	7	96	48	5
TAP	44	96	1
TAP	44	160	0
TAP	44	256	0
STR	44	256	5
SCR	44	256	5	96	224	2
TAP	44	352	2
TAP	45	288	3
TAP	45	288	4
TAP	46	0	0
TAP	46	0	7
TAP	46	64	0
TAP	46	64	7
BRK	46	160	1
BRK	46	160	6
TAP	46	352	3
TAP	46	352	4
TAP	47	64	4
TAP	47	96	3
TAP	47	160	3
TAP	47	192	4
TAP	47	256	4
TAP	47	288	1
TAP	47	352	1
TAP	48	0	6
TAP	48	64	6
TAP	48	96	4
TAP	48	160	4
TAP	48	192	6
TAP	48	256	6
TAP	48	288	3
TAP	48	352	3
TAP	49	0	4
TAP	49	64	4
TAP	49	96	1
TAP	49	160	1
TAP	49	192	4
TAP	49	256	4
STR	49	288	3
SI_	49	288	3	96	48	1
STR	50	0	4
SI_	50	0	4	96	48	6
STR	50	96	3
SI_	50	96	3	96	48	0
STR	50	192	4
SI_	50	192	4	96	48	7
TAP	50	288	3
TAP	51	0	0
TAP	51	64	0
STR	51	96	3
SI_	51	96	3	96	48	7
TAP	51	160	3
STR	51	192	0
SI_	51	192	0	96	48	3
HLD	52	0	7	96
HLD	52	96	4	96
TAP	52	192	5
TAP	52	288	3
TAP	52	288	6
STR	53	0	2
SCL	53	0	2	96	48	0
TAP	53	0	4
TAP	53	96	6
STR	53	192	5
SCR	53	192	5	96	48	7
TAP	53	288	1
TAP	54	0	0
TAP	54	64	0
TAP	54	64	7
TAP	54	160	2
TAP	54	160	5
TAP	54	256	4
TAP	54	288	3
STR	55	0	7
SCL	55	0	7	96	96	4
STR	55	96	4
SI_	55	96	4	96	96	0
STR	55	192	0
SCR	55	192	0	96	96	3
TAP	55	288	3
STR	56	0	4
SCR	56	0	4	96	96	7
STR	56	96	7
SI_	56	96	7	96	96	3
STR	56	192	3
SCL	56	192	3	96	96	0
TAP	56	288	0
TAP	57	0	7
TAP	57	96	3
TAP	57	96	6
TAP	57	192	2
TAP	57	192	3
TAP	57	256	1
STR	57	256	4
SCR	57	256	4	96	128	2
TAP	57	352	3
TAP	58	192	0
TAP	58	192	7
TAP	58	256	0
TAP	58	256	7
TAP	58	352	2
TAP	58	352	4
TAP	59	64	2
TAP	59	96	3
TAP	59	128	2
TAP	59	160	1
TAP	59	192	2
TAP	59	256	2
TAP	59	288	3
TAP	59	352	5
TAP	60	0	4
TAP	60	64	2
TAP	60	96	3
TAP	60	160	1
TAP	60	160	4
TAP	60	256	3
TAP	60	256	6
TAP	60	352	5
TAP	61	0	4
TAP	61	32	5
TAP	61	64	6
TAP	61	96	5
TAP	61	128	4
TAP	61	160	5
TAP	61	192	6
TAP	61	224	5
TAP	61	256	4
TAP	61	288	5
TAP	61	320	6
TAP	61	352	5
HLD	62	0	4	96
HLD	62	96	7	96
HLD	62	192	0	96
TAP	62	288	2
TAP	63	0	1
TAP	63	0	6
TAP	63	96	4
TAP	63	160	4
TAP	63	192	3
TAP	63	256	3
TAP	63	288	7
TAP	63	352	7
STR	64	0	0
SCR	64	0	0	96	48	3
STR	64	96	4
SCR	64	96	4	96	48	7
TAP	64	288	3
STR	65	0	1
SI_	65	0	1	96	48	4
TAP	65	0	7
TAP	65	96	5
STR	65	192	6
SI_	65	192	6	96	48	3
TAP	65	288	2
STR	66	0	1
SI_	66	0	1	96	48	5
STR	66	96	6
SI_	66	96	6	96	48	2
TAP	66	192	0
BRK	66	288	7
STR	67	0	0
SI_	67	0	0	96	48	3
STR	67	0	1
SI_	67	0	1	96	48	4
TAP	67	96	0
TAP	67	96	1
TAP	67	192	5
TAP	67	256	5
TAP	67	288	7
TAP	67	352	7
TAP	68	0	0
TAP	68	64	0
TAP	68	96	2
TAP	68	160	1
TAP	68	160	3
TAP	68	256	6
TAP	68	288	4
STR	69	0	6
SI_	69	0	6	96	48	3
STR	69	0	7
SI_	69	0	7	96	48	4
TAP	69	96	6
TAP	69	96	7
TAP	69	192	2
TAP	69	256	2
TAP	69	288	0
TAP	69	352	0
TAP	70	0	7
TAP	70	64	7
TAP	70	96	5
TAP	70	192	3
TAP	70	192	6
TAP	70	288	1
TAP	70	288	4
STR	71	0	0
SI_	71	0	0	96	48	3
STR	71	0	1
SI_	71	0	1	96	48	4
TAP	71	96	0
TAP	71	96	1
TAP	71	192	5
TAP	71	256	5
TAP	71	288	7
TAP	71	352	7
TAP	72	0	0
TAP	72	64	0
TAP	72	96	2
TAP	72	192	1
TAP	72	192	4
TAP	72	288	3
TAP	72	288	6
TAP	73	0	0
TAP	73	64	0
TAP	73	96	7
TAP	73	160	7
TAP	73	192	4
TAP	73	256	4
TAP	73	288	3
TAP	73	352	3
TAP	74	0	0
TAP	74	32	7
TAP	74	64	1
TAP	74	96	6
TAP	74	128	2
TAP	74	160	5
TAP	74	192	3
BRK	74	288	1
BRK	74	288	6
STR	75	0	0
SI_	75	0	0	96	48	4
STR	75	0	1
SI_	75	0	1	96	48	3
TAP	75	96	0
TAP	75	96	1
TAP	75	192	5
TAP	75	256	5
TAP	75	288	7
TAP	75	352	7
TAP	76	0	0
TAP	76	64	0
TAP	76	96	2
TAP	76	160	1
TAP	76	160	3
TAP	76	288	4
TAP	76	288	6
STR	77	0	6
SI_	77	0	6	96	48	4
STR	77	0	7
SI_	77	0	7	96	48	3
TAP	77	96	6
TAP	77	96	7
TAP	77	192	2
TAP	77	256	2
TAP	77	288	0
TAP	77	352	0
TAP	78	0	7
TAP	78	64	7
TAP	78	96	5
TAP	78	192	3
TAP	78	192	6
TAP	78	288	1
TAP	78	288	4
HLD	79	0	3	192
HLD	79	0	4	192
TAP	79	256	1
TAP	79	256	6
STR	80	0	2
SLR	80	0	2	96	192	7
STR	80	0	5
SLL	80	0	5	96	192	0
BST	81	0	0
SF_	81	0	0	96	48	4
BRK	81	96	0
BST	81	192	0
SF_	81	192	0	96	48	4
BRK	81	288	0
TAP	82	0	6
TAP	82	32	7
TAP	82	64	5
TAP	82	96	1
TAP	82	128	0
TAP	82	160	2
TAP	82	192	4
TAP	82	256	4
TAP	82	288	3
TAP	83	0	1
HLD	83	0	4	192
TAP	83	96	3
TAP	83	192	0
TAP	83	288	3
TAP	83	288	5
TAP	83	352	5
TAP	84	0	1
TAP	84	96	3
TAP	84	96	7
TAP	84	192	0
STR	84	192	7
SI_	84	192	7	96	48	5
TAP	84	288	3
TAP	85	0	1
TAP	85	0	4
TAP	85	96	3
TAP	85	96	4
TAP	85	192	0
TAP	85	192	5
TAP	85	288	3
TAP	85	288	5
TAP	86	0	1
TAP	86	0	6
TAP	86	64	6
TAP	86	96	4
TAP	86	160	4
TAP	86	192	3
TAP	86	288	3
TAP	86	288	5
TAP	87	0	1
HLD	87	0	6	96
TAP	87	96	3
TAP	87	192	0
TAP	87	192	7
STR	87	256	7
SI_	87	256	7	96	48	4
TAP	87	288	3
TAP	88	0	1
TAP	88	96	3
TAP	88	96	5
TAP	88	192	0
TAP	88	192	6
TAP	88	288	3
TAP	88	288	4
TAP	89	0	1
TAP	89	0	6
TAP	89	96	3
TAP	89	128	4
TAP	89	160	3
TAP	89	192	4
STR	89	256	2
SCL	89	256	2	96	128	5
TAP	89	256	5
TAP	89	352	4
TAP	90	192	3
TAP	90	192	4
TAP	90	288	0
TAP	90	288	7
HLD	91	0	3	192
TAP	91	0	6
TAP	91	96	4
TAP	91	192	7
TAP	91	288	2
TAP	91	288	4
TAP	91	352	2
TAP	92	0	6
TAP	92	96	4
STR	92	192	0
SI_	92	192	0	96	48	2
TAP	92	192	7
TAP	92	288	4
STR	93	0	3
SCL	93	0	3	96	96	0
TAP	93	0	6
TAP	93	96	4
TAP	93	192	7
TAP	93	288	4
TAP	94	0	2
TAP	94	0	6
TAP	94	64	2
TAP	94	96	4
TAP	94	160	4
TAP	94	192	3
TAP	94	256	3
TAP	94	288	5
TAP	95	0	3
TAP	95	0	6
TAP	95	96	2
TAP	95	96	4
TAP	95	160	2
TAP	95	192	7
TAP	95	288	0
TAP	95	288	4
TAP	96	0	0
TAP	96	0	6
TAP	96	96	2
TAP	96	96	4
TAP	96	160	2
TAP	96	192	7
TAP	96	288	3
TAP	96	288	4
TAP	97	0	0
TAP	97	0	6
TAP	97	96	2
TAP	97	96	4
TAP	97	160	2
TAP	97	192	7
TAP	97	288	0
TAP	97	288	4
TAP	98	0	1
TAP	98	0	6
TAP	98	64	7
TAP	98	96	0
TAP	98	160	0
TAP	98	192	7
TAP	98	288	2
TAP	98	288	5
STR	99	0	6
SCL	99	0	6	96	48	4
TAP	99	64	6
TAP	99	96	7
STR	99	192	1
SCR	99	192	1	96	48	3
TAP	99	256	1
TAP	99	288	0
STR	100	0	6
SCL	100	0	6	96	48	4
TAP	100	64	6
TAP	100	96	7
STR	100	192	1
SCR	100	192	1	96	48	3
TAP	100	256	1
TAP	100	288	0
TAP	101	0	6
TAP	101	64	6
TAP	101	96	4
TAP	101	160	4
TAP	101	192	3
TAP	101	256	3
TAP	101	288	1
TAP	101	352	1
TAP	102	0	0
TAP	102	64	0
TAP	102	96	7
TAP	102	160	7
TAP	102	192	6
TAP	102	288	3
TAP	102	288	6
STR	103	0	2
SCR	103	0	2	96	48	5
TAP	103	64	2
TAP	103	96	6
STR	103	192	6
SCR	103	192	6	96	48	1
TAP	103	256	6
TAP	103	288	2
STR	104	0	2
SCR	104	0	2	96	48	5
TAP	104	64	2
TAP	104	96	6
STR	104	192	6
SCR	104	192	6	96	48	1
TAP	104	256	6
STR	104	288	2
SCL	104	288	2	96	144	3
TAP	105	192	7
TAP	105	256	0
TAP	105	256	7
TAP	105	352	1
TAP	105	352	6
TAP	106	96	3
TAP	106	96	4
TAP	106	192	3
TAP	106	224	4
TAP	106	256	2
TAP	106	288	5
STR	107	0	5
SCR	107	0	5	96	48	7
TAP	107	64	5
TAP	107	96	4
STR	107	192	2
SCL	107	192	2	96	48	0
TAP	107	256	2
TAP	107	288	3
STR	108	0	5
SCR	108	0	5	96	48	7
TAP	108	64	5
TAP	108	96	4
STR	108	192	2
SCL	108	192	2	96	48	0
TAP	108	256	2
TAP	108	288	3
HLD	109	0	5	96
HLD	109	96	7	96
HLD	109	192	0	96
TAP	109	288	2
TAP	110	0	3
TAP	110	0	4
TAP	110	64	5
TAP	110	96	4
TAP	110	160	2
TAP	110	192	3
TAP	110	256	4
TAP	110	288	3
TAP	111	0	1
STR	111	0	5
SCR	111	0	5	96	96	0
TAP	111	96	2
TAP	111	160	2
TAP	111	288	1
TAP	111	288	4
STR	112	0	2
SCL	112	0	2	96	96	7
TAP	112	0	6
TAP	112	96	5
TAP	112	160	5
TAP	112	288	3
TAP	112	288	6
TAP	113	0	0
TAP	113	0	7
TAP	113	96	4
TAP	113	96	6
TAP	113	192	4
TAP	113	224	5
TAP	113	256	3
TAP	113	288	4
TAP	113	320	2
TAP	113	352	3
HLD	114	0	2	384
TAP	115	0	4
TAP	115	96	4
TAP	115	192	3
TAP	115	224	4
TAP	115	256	3
TAP	115	288	4
STR	116	0	1
SI_	116	0	1	96	48	4
TAP	116	96	6
STR	116	192	5
SI_	116	192	5	96	48	0
TAP	116	288	2
STR	117	0	2
SI_	117	0	2	96	48	5
STR	117	96	6
SI_	117	96	6	96	48	1
STR	117	192	3
SI_	117	192	3	96	48	0
STR	117	288	7
SI_	117	288	7	96	48	4
TAP	118	0	2
TAP	118	96	1
TAP	118	96	3
TAP	118	192	5
TAP	118	288	4
TAP	118	288	6
STR	119	0	6
SI_	119	0	6	96	48	3
STR	119	96	2
SI_	119	96	2	96	48	7
STR	119	192	5
SI_	119	192	5	96	48	0
STR	119	288	1
SI_	119	288	1	96	48	4
TAP	120	0	6
TAP	120	96	5
TAP	120	96	7
TAP	120	192	1
TAP	120	288	0
TAP	120	288	2
STR	121	0	2
SI_	121	0	2	96	48	5
STR	121	96	6
SI_	121	96	6	96	48	1
STR	121	192	3
SI_	121	192	3	96	48	0
STR	121	288	7
SI_	121	288	7	96	48	4
STR	122	0	3
SCL	122	0	3	96	48	0
TAP	122	96	6
STR	122	192	4
SCR	122	192	4	96	48	7
TAP	122	288	1
TAP	123	0	3
TAP	123	32	4
TAP	123	64	3
TAP	123	96	5
TAP	123	192	3
TAP	123	192	4
TAP	123	256	3
TAP	123	256	4
TAP	123	352	1
TAP	123	352	6
TAP	124	64	7
STR	124	96	0
SI_	124	96	0	96	48	4
TAP	124	192	6
STR	124	288	7
SCL	124	288	7	96	96	3
STR	125	0	3
SCL	125	0	3	96	96	7
STR	125	96	7
SCL	125	96	7	96	96	3
STR	125	192	3
SCL	125	192	3	96	96	7
TAP	125	288	7
TAP	126	0	3
TAP	126	96	2
TAP	126	96	4
TAP	126	192	1
STR	126	288	0
SCR	126	288	0	96	96	4
TAP	126	288	6
STR	127	0	4
SCR	127	0	4	96	96	0
STR	127	96	0
SCR	127	96	0	96	96	4
STR	127	192	4
SCR	127	192	4	96	96	0
TAP	127	288	0
TAP	128	0	4
TAP	128	96	3
TAP	128	96	5
TAP	128	192	6
TAP	128	288	5
STR	128	288	7
SCR	128	288	7	96	96	3
STR	129	0	3
SCR	129	0	3	96	96	7
STR	129	96	7
SCR	129	96	7	96	96	3
TAP	129	192	3
TAP	129	288	7
TAP	130	0	2
TAP	130	32	3
TAP	130	64	2
TAP	130	96	5
TAP	130	128	4
TAP	130	160	5
TAP	130	192	3
TAP	130	256	2
TAP	130	256	5
TAP	130	352	2
TAP	130	352	5
STR	131	96	6
SI_	131	96	6	96	48	2
STR	131	192	1
SI_	131	192	1	96	48	5
STR	131	288	4
SF_	131	288	4	96	96	0
TAP	133	0	2
TAP	133	0	6
TAP	133	96	4
TAP	133	128	3
TAP	133	160	4
TAP	133	192	2
TAP	133	288	2
TAP	133	288	5
TAP	134	0	0
TAP	134	32	7
TAP	134	64	0
TAP	134	96	7
TAP	134	192	2
TAP	134	192	5
STR	134	256	0
SI_	134	256	0	96	48	4
STR	134	256	7
SI_	134	256	7	96	48	3
BRK	134	352	0
BRK	134	352	7

T_REC_TAP	615
T_REC_BRK	11
T_REC_XTP	0
T_REC_HLD	40
T_REC_XHO	0
T_REC_STR	113
T_REC_BST	2
T_REC_XST	0
T_REC_TTP	0
T_REC_THO	0
T_REC_SLD	115
T_REC_ALL	896
T_NUM_TAP	728
T_NUM_BRK	13
T_NUM_HLD	40
T_NUM_SLD	115
T_NUM_ALL	896
T_JUDGE_TAP	741
T_JUDGE_HLD	117
T_JUDGE_SLD	115
T_JUDGE_ALL	973
TTM_EACHPAIRS	143
TTM_SCR_TAP	364000
TTM_SCR_BRK	33800
TTM_SCR_HLD	40000
TTM_SCR_SLD	172500
TTM_SCR_ALL	610300
TTM_SCR_S	590750
TTM_SCR_SS	609000
TTM_RAT_ACV	10021

