VERSION	0.00.00	1.03.00
FES_MODE	0
BPM_DEF	230.000	230.000	230.000	230.000
MET_DEF	4	4
RESOLUTION	384
CLK_DEF	384
COMPATIBLE_CODE	MA2

BPM	0	0	230.000
MET	0	0	4	4

HLD	3	0	7	96
TAP	3	96	1
HLD	3	192	1	96
TAP	3	288	5
HLD	4	0	5	96
TAP	4	96	3
TAP	4	192	3
TAP	4	256	4
HLD	4	352	3	704
TAP	5	96	4
TAP	5	288	4
TAP	6	96	4
TAP	6	288	4
STR	7	0	1
SCR	7	0	1	96	128	4
TAP	7	0	7
TAP	8	0	0
STR	8	0	6
SCL	8	0	6	96	128	3
HLD	9	0	0	96
HLD	9	0	7	96
TAP	9	192	0
TAP	9	192	7
STR	9	352	0
SCR	9	352	0	96	128	3
STR	9	352	7
SCL	9	352	7	96	128	4
HLD	11	0	4	288
TAP	11	96	3
TAP	11	288	2
HLD	12	0	2	288
TAP	12	96	3
TAP	12	288	5
HLD	13	0	6	288
TAP	13	96	5
TAP	13	288	0
HLD	14	0	0	288
TAP	14	96	1
TAP	14	288	7
TAP	15	0	2
TAP	15	0	3
TAP	15	96	3
TAP	15	96	4
TAP	15	192	4
TAP	15	192	5
TAP	16	0	4
TAP	16	0	6
TAP	16	96	3
TAP	16	96	5
TAP	16	192	2
TAP	16	192	4
STR	17	0	0
SXL	17	0	0	96	288	3
STR	17	0	7
SXR	17	0	7	96	288	4
TAP	18	192	3
TAP	18	288	4
HLD	19	0	2	96
TAP	19	96	3
HLD	19	192	2	96
TAP	19	288	3
TAP	20	0	2
TAP	20	0	3
TAP	20	96	1
TAP	20	96	4
TAP	20	192	0
TAP	20	192	5
HLD	21	0	5	96
TAP	21	96	4
HLD	21	192	5	96
TAP	21	288	4
TAP	22	0	4
TAP	22	0	5
TAP	22	96	3
TAP	22	96	6
TAP	22	192	2
TAP	22	192	7
HLD	23	0	6	96
TAP	23	96	7
HLD	23	192	6	96
TAP	23	288	7
TAP	24	0	6
TAP	24	0	7
TAP	24	96	0
TAP	24	96	5
TAP	24	192	1
TAP	24	192	4
TAP	24	288	2
TAP	24	288	3
HLD	25	0	2	96
HLD	25	96	3	96
HLD	25	192	1	96
TAP	25	288	0
TAP	26	0	0
TAP	26	0	1
TAP	26	96	2
TAP	26	96	7
TAP	26	192	3
TAP	26	192	6
TAP	26	288	4
TAP	26	288	5
HLD	27	0	3	576
BRK	27	0	6
TAP	29	0	3
TAP	29	0	4
TAP	29	96	3
TAP	29	96	4
TAP	29	192	3
TAP	29	256	4
HLD	29	352	2	224
HLD	29	352	5	224
TAP	30	288	2
TAP	30	288	5
TAP	31	0	3
TAP	31	96	4
TAP	31	192	3
TAP	31	288	2
TAP	31	288	4
TAP	32	0	5
TAP	32	96	4
TAP	32	192	5
TAP	32	288	4
TAP	32	288	6
HLD	33	0	3	192
HLD	33	192	2	192
STR	34	0	1
SCL	34	0	1	96	96	6
TAP	35	0	7
TAP	35	96	0
TAP	35	192	7
TAP	35	288	0
TAP	35	288	6
TAP	36	0	1
TAP	36	96	0
TAP	36	192	1
TAP	36	288	0
TAP	36	288	2
TAP	37	0	5
TAP	37	96	4
TAP	37	192	5
TAP	37	288	4
TAP	37	288	6
STR	38	0	3
SCL	38	0	3	96	96	0
BRK	38	192	7
TAP	39	0	4
TAP	39	96	3
TAP	39	192	4
TAP	39	288	3
TAP	39	288	5
TAP	40	0	2
TAP	40	96	3
TAP	40	192	2
TAP	40	288	1
TAP	40	288	3
HLD	41	0	4	192
HLD	41	192	5	192
STR	42	0	6
SCR	42	0	6	96	96	1
TAP	43	0	2
TAP	43	96	0
TAP	43	96	1
TAP	43	192	2
TAP	43	192	7
TAP	43	288	3
TAP	43	288	6
TAP	44	0	4
TAP	44	0	5
TAP	44	96	6
TAP	44	96	7
TAP	44	192	0
TAP	44	192	5
TAP	44	288	1
TAP	44	288	4
TAP	45	0	2
HLD	45	0	3	192
HLD	45	192	4	192
TAP	46	0	5
TAP	46	64	5
TAP	46	160	3
TAP	46	160	6
TAP	47	0	0
TAP	47	0	7
TAP	47	96	1
TAP	47	192	2
TAP	47	288	3
TAP	48	0	2
TAP	48	0	4
TAP	48	96	5
TAP	48	192	6
TAP	48	288	7
TAP	49	0	0
TAP	49	0	6
TAP	49	96	5
TAP	49	192	4
TAP	49	288	3
TAP	50	0	2
TAP	50	0	4
TAP	50	96	1
TAP	50	96	4
TAP	50	192	0
TAP	50	192	4
TAP	50	288	4
TAP	50	288	7
TAP	51	0	6
TAP	51	0	7
TAP	51	96	5
TAP	51	192	4
TAP	51	288	1
TAP	51	288	7
TAP	52	0	0
TAP	52	0	1
TAP	52	96	2
TAP	52	192	3
TAP	52	288	0
TAP	52	288	6
STR	53	0	6
SI_	53	0	6	96	96	2
TAP	53	0	7
STR	53	192	7
SI_	53	192	7	96	96	3
STR	54	0	0
SI_	54	0	0	96	96	4
HLD	55	0	2	288
TAP	55	96	3
TAP	55	192	4
TAP	55	288	3
HLD	56	0	5	288
TAP	56	96	4
TAP	56	192	3
TAP	56	288	4
HLD	57	0	1	288
TAP	57	96	3
TAP	57	192	4
TAP	57	288	3
TAP	58	0	2
TAP	58	0	4
TAP	58	96	3
TAP	58	96	5
BRK	58	192	4
BRK	58	192	6
TAP	59	0	0
TAP	59	0	1
TAP	59	96	2
TAP	59	192	3
TAP	59	288	0
TAP	59	288	6
TAP	60	0	6
TAP	60	0	7
TAP	60	96	5
TAP	60	192	4
TAP	60	288	1
TAP	60	288	7
TAP	61	0	0
STR	61	0	1
SI_	61	0	1	96	96	5
STR	61	192	0
SI_	61	192	0	96	96	4
STR	62	0	7
SI_	62	0	7	96	96	3
TAP	63	0	7
TAP	63	96	6
TAP	63	192	5
TAP	63	288	2
TAP	63	288	4
TAP	64	0	3
TAP	64	96	2
TAP	64	192	1
TAP	64	288	0
TAP	64	288	6
BRK	65	0	7
TAP	66	192	0
TAP	66	192	7
TAP	66	288	1
TAP	66	288	6
TAP	67	0	2
TAP	67	96	1
TAP	67	96	3
TAP	67	192	2
TAP	67	288	0
TAP	67	288	4
TAP	68	0	2
TAP	68	96	1
TAP	68	96	3
TAP	68	192	0
TAP	68	192	4
TAP	68	288	5
TAP	68	288	7
TAP	69	0	5
TAP	69	96	4
TAP	69	96	6
TAP	69	192	5
TAP	69	288	3
TAP	69	288	7
TAP	70	0	5
TAP	70	96	4
TAP	70	96	6
TAP	70	192	3
TAP	70	192	7
TAP	70	288	0
TAP	70	288	2
TAP	71	0	2
TAP	71	96	1
TAP	71	96	3
TAP	71	192	5
TAP	71	288	4
TAP	71	288	6
TAP	72	0	3
TAP	72	96	2
TAP	72	96	4
TAP	72	192	4
TAP	72	288	3
TAP	72	288	5
HLD	73	0	2	96
HLD	73	0	4	96
HLD	73	192	3	96
HLD	73	192	6	96
HLD	74	0	1	96
HLD	74	0	4	96
HLD	74	192	3	96
HLD	74	192	7	96
TAP	75	0	1
TAP	75	96	0
TAP	75	96	2
TAP	75	192	1
TAP	75	288	3
TAP	75	288	7
TAP	76	0	1
TAP	76	96	0
TAP	76	96	2
TAP	76	192	3
TAP	76	192	7
TAP	76	288	4
TAP	76	288	6
TAP	77	0	6
TAP	77	96	5
TAP	77	96	7
TAP	77	192	6
TAP	77	288	0
TAP	77	288	4
TAP	78	0	6
TAP	78	96	5
TAP	78	96	7
TAP	78	192	0
TAP	78	192	4
TAP	78	288	1
TAP	78	288	3
STR	79	0	0
SUR	79	0	0	96	128	5
STR	79	0	1
SCR	79	0	1	96	128	4
STR	80	0	6
SCL	80	0	6	96	128	3
STR	80	0	7
SUL	80	0	7	96	128	2
TAP	81	0	2
TAP	81	0	3
TAP	81	96	0
TAP	81	96	6
TAP	81	192	4
TAP	81	192	5
TAP	81	288	1
TAP	81	288	7
HLD	82	0	2	96
TAP	82	96	7
HLD	82	192	6	96
TAP	82	288	0
TAP	83	0	1
TAP	83	96	3
TAP	83	96	7
TAP	83	192	6
TAP	83	288	0
TAP	83	288	4
TAP	84	0	1
TAP	84	96	3
TAP	84	96	7
TAP	84	192	6
TAP	84	288	0
TAP	84	288	4
TAP	85	0	2
TAP	85	96	3
TAP	85	96	7
TAP	85	192	5
STR	85	288	0
SXR	85	288	0	96	240	4
TAP	85	288	4
TAP	87	0	7
TAP	87	96	0
TAP	87	96	6
TAP	87	192	1
TAP	87	192	5
TAP	87	288	2
TAP	87	288	4
TAP	88	0	0
TAP	88	96	1
TAP	88	96	7
TAP	88	192	2
TAP	88	192	6
TAP	88	288	3
TAP	88	288	5
TAP	89	0	2
TAP	89	0	3
TAP	89	96	1
TAP	89	96	4
TAP	89	192	0
TAP	89	192	5
STR	89	256	0
SLR	89	256	0	96	224	6
STR	89	256	5
SLL	89	256	5	96	224	7
HLD	91	0	5	96
TAP	91	96	4
HLD	91	192	3	96
TAP	91	288	4
HLD	92	0	4	96
TAP	92	96	3
HLD	92	192	2	96
TAP	92	288	3
HLD	93	0	6	96
TAP	93	96	7
HLD	93	192	1	96
TAP	93	288	0
HLD	94	0	5	96
TAP	94	96	4
HLD	94	192	2	96
TAP	94	288	3
HLD	95	0	2	96
HLD	95	0	3	96
HLD	95	160	1	128
HLD	95	160	4	128
HLD	96	0	4	96
HLD	96	0	5	96
HLD	96	160	3	128
HLD	96	160	6	128
HLD	97	0	6	96
HLD	97	0	7	96
HLD	97	160	0	128
HLD	97	160	5	128
HLD	98	0	0	96
HLD	98	0	1	96
HLD	98	160	2	128
HLD	98	160	7	128
STR	99	0	3
SCL	99	0	3	96	160	0
STR	99	0	7
SUR	99	0	7	96	160	4
STR	100	0	0
SUL	100	0	0	96	160	3
STR	100	0	4
SCR	100	0	4	96	160	7
STR	101	0	3
SXR	101	0	3	96	288	0
STR	101	0	7
SXR	101	0	7	96	288	4
TAP	102	192	1
TAP	102	192	6
STR	103	0	3
SUR	103	0	3	96	192	5
TAP	103	0	6
TAP	104	0	1
STR	104	0	4
SUL	104	0	4	96	192	2
TAP	105	0	0
TAP	105	96	0
HLD	105	192	0	160
STR	105	352	7
SXL	105	352	7	96	224	3
TAP	107	0	2
TAP	107	96	2
TAP	107	96	3
TAP	107	192	5
TAP	107	288	4
TAP	107	288	5
TAP	108	0	1
TAP	108	96	0
TAP	108	96	1
TAP	108	192	6
TAP	108	288	6
TAP	108	288	7
STR	109	0	1
SI_	109	0	1	96	96	4
TAP	109	192	7
STR	110	0	7
SI_	110	0	7	96	96	3
TAP	110	192	0
HLD	111	0	2	160
TAP	111	160	3
TAP	111	288	1
TAP	111	288	4
HLD	112	0	5	160
TAP	112	160	4
TAP	112	288	3
TAP	112	288	6
TAP	113	0	3
TAP	113	0	7
TAP	113	96	2
TAP	113	96	6
TAP	113	192	1
TAP	113	192	5
TAP	113	288	0
TAP	113	288	4
BST	114	0	3
SXL	114	0	3	96	480	6
BST	114	0	7
SXL	114	0	7	96	480	2
TAP	116	0	0
TAP	116	96	1
TAP	116	96	7
TAP	116	192	0
TAP	116	256	0
TAP	116	352	1
TAP	116	352	7
TAP	117	96	2
TAP	117	96	3
TAP	117	192	3
TAP	117	192	4
TAP	117	288	4
TAP	117	288	5
TAP	118	0	7
TAP	118	96	0
TAP	118	96	6
TAP	118	192	7
TAP	118	256	7
TAP	118	352	0
TAP	118	352	6
TAP	119	96	4
TAP	119	96	5
TAP	119	192	3
TAP	119	192	4
TAP	119	288	2
TAP	119	288	3
TAP	120	0	0
TAP	120	96	1
TAP	120	96	7
TAP	120	192	0
TAP	120	256	0
TAP	120	352	1
TAP	120	352	7
TAP	121	96	2
TAP	121	96	3
TAP	121	192	3
TAP	121	192	4
TAP	121	288	4
TAP	121	288	5
STR	122	0	6
SI_	122	0	6	96	96	3
TAP	122	96	0
STR	122	192	1
SI_	122	192	1	96	96	4
TAP	122	288	7
HLD	123	0	7	96
HLD	123	96	1	96
TAP	123	192	0
BRK	123	256	0
HLD	123	352	1	128
TAP	124	96	0
TAP	124	192	1
TAP	124	256	1
TAP	124	352	2
TAP	124	352	7
TAP	125	96	4
TAP	125	96	5
TAP	125	192	2
TAP	125	192	3
TAP	125	288	4
TAP	125	288	5
HLD	126	0	6	96
TAP	126	96	7
TAP	126	192	6
TAP	126	256	6
TAP	126	352	0
TAP	126	352	5
TAP	127	96	2
TAP	127	96	3
TAP	127	192	4
TAP	127	192	5
TAP	127	288	2
TAP	127	288	3
HLD	128	0	2	96
TAP	128	96	3
TAP	128	192	2
TAP	128	256	2
TAP	128	352	1
TAP	128	352	4
TAP	129	96	3
TAP	129	96	5
TAP	129	192	2
TAP	129	192	4
TAP	129	288	3
TAP	129	288	5
TAP	130	0	2
TAP	130	0	3
TAP	130	96	1
TAP	130	96	4
TAP	130	192	0
TAP	130	192	5
HLD	130	256	0	96
HLD	130	256	5	96
TAP	131	96	2
TAP	131	96	7
TAP	131	192	3
TAP	131	192	6
TAP	131	288	4
TAP	131	288	5
TAP	132	0	3
TAP	132	0	6
TAP	132	96	5
TAP	132	160	5
TAP	132	192	4
TAP	132	288	2
TAP	132	288	3
TAP	133	0	1
TAP	133	0	4
TAP	133	96	2
TAP	133	160	2
TAP	133	192	3
TAP	133	288	4
TAP	133	288	5
TAP	134	0	3
TAP	134	32	4
TAP	134	64	3
TAP	134	96	4
TAP	134	192	0
TAP	134	192	7
TAP	134	256	0
TAP	134	256	7
TAP	134	352	1
TAP	134	352	6

T_REC_TAP	473
T_REC_BRK	6
T_REC_XTP	0
T_REC_HLD	75
T_REC_XHO	0
T_REC_STR	35
T_REC_BST	2
T_REC_XST	0
T_REC_TTP	0
T_REC_THO	0
T_REC_SLD	37
T_REC_ALL	628
T_NUM_TAP	508
T_NUM_BRK	8
T_NUM_HLD	75
T_NUM_SLD	37
T_NUM_ALL	628
T_JUDGE_TAP	516
T_JUDGE_HLD	234
T_JUDGE_SLD	37
T_JUDGE_ALL	787
TTM_EACHPAIRS	187
TTM_SCR_TAP	254000
TTM_SCR_BRK	20800
TTM_SCR_HLD	75000
TTM_SCR_SLD	55500
TTM_SCR_ALL	405300
TTM_SCR_S	392400
TTM_SCR_SS	404500
TTM_RAT_ACV	10019

