VERSION	0.00.00	1.03.00
FES_MODE	0
BPM_DEF	230.000	230.000	230.000	230.000
MET_DEF	4	4
RESOLUTION	384
CLK_DEF	384
COMPATIBLE_CODE	MA2

BPM	0	0	230.000
MET	0	0	4	4

HLD	3	0	5	192
TAP	3	192	4
HLD	4	0	2	192
TAP	4	192	3
STR	5	0	3
SI_	5	0	3	96	288	0
STR	5	0	4
SI_	5	0	4	96	288	7
TAP	6	192	1
TAP	6	192	6
TAP	7	0	2
TAP	7	192	1
TAP	7	192	3
TAP	8	0	4
TAP	8	96	4
TAP	8	192	4
TAP	9	0	5
TAP	9	192	4
TAP	9	192	6
TAP	10	0	7
TAP	10	96	7
TAP	10	192	7
HLD	11	0	0	192
HLD	11	0	7	192
TAP	12	0	0
TAP	12	0	7
TAP	12	192	1
TAP	12	192	6
TAP	13	0	2
TAP	13	0	3
TAP	13	192	4
TAP	13	192	5
TAP	14	0	3
TAP	14	96	3
TAP	14	192	3
TAP	14	192	4
TAP	15	0	1
TAP	15	192	0
TAP	15	192	2
TAP	16	0	7
TAP	16	96	7
TAP	16	192	7
STR	17	0	0
SCR	17	0	0	96	288	3
STR	17	0	7
SCL	17	0	7	96	288	4
BRK	18	192	2
BRK	18	192	5
TAP	19	0	5
TAP	19	192	4
TAP	19	192	5
TAP	20	0	3
TAP	20	192	2
TAP	20	192	4
TAP	21	0	2
TAP	21	192	2
TAP	21	192	3
TAP	22	0	1
TAP	22	96	1
TAP	22	192	1
TAP	23	0	6
TAP	23	192	6
TAP	23	192	7
TAP	24	0	5
TAP	24	192	4
TAP	24	192	6
TAP	25	0	2
TAP	25	0	3
TAP	25	192	4
TAP	25	192	5
TAP	26	0	3
TAP	26	96	3
TAP	26	192	3
TAP	26	192	4
HLD	27	0	3	192
HLD	27	0	4	192
HLD	28	0	3	192
HLD	28	0	4	192
TAP	29	0	3
TAP	29	0	4
TAP	29	192	2
TAP	29	192	5
TAP	30	0	4
TAP	30	96	4
TAP	30	192	3
TAP	30	192	4
HLD	31	0	1	192
HLD	31	192	2	192
TAP	32	0	3
TAP	32	192	3
TAP	32	192	4
HLD	33	0	5	192
HLD	33	192	6	192
TAP	34	0	7
TAP	34	192	0
TAP	34	192	7
STR	35	0	0
SI_	35	0	0	96	288	5
STR	35	0	1
SI_	35	0	1	96	288	4
TAP	36	192	3
TAP	36	192	6
STR	37	0	6
SI_	37	0	6	96	288	3
STR	37	0	7
SI_	37	0	7	96	288	2
TAP	38	192	1
TAP	38	192	4
HLD	39	0	2	192
HLD	39	192	1	192
TAP	40	0	0
TAP	40	192	6
TAP	40	192	7
HLD	41	0	5	192
HLD	41	192	6	192
TAP	42	0	7
TAP	42	192	0
TAP	42	192	1
HLD	43	0	2	192
HLD	43	192	3	192
HLD	44	0	4	192
HLD	44	192	5	192
HLD	45	0	6	192
HLD	45	192	7	192
TAP	46	0	0
TAP	46	192	1
TAP	46	192	6
STR	47	0	4
SCL	47	0	4	96	288	1
TAP	47	0	5
TAP	48	192	0
TAP	48	192	7
STR	49	0	6
SCL	49	0	6	96	288	3
TAP	49	0	7
TAP	50	192	2
TAP	50	192	4
HLD	51	0	1	192
TAP	51	192	0
TAP	52	0	2
TAP	52	96	2
TAP	52	192	2
HLD	53	0	3	192
HLD	53	0	4	192
TAP	54	0	3
TAP	54	0	4
TAP	54	96	3
TAP	54	96	4
TAP	54	192	3
TAP	54	192	4
HLD	55	0	6	192
TAP	55	192	7
TAP	56	0	5
TAP	56	96	5
TAP	56	192	5
HLD	57	0	3	192
HLD	57	0	4	192
TAP	58	0	3
TAP	58	0	4
TAP	58	96	3
TAP	58	96	4
TAP	58	192	3
TAP	58	192	4
TAP	59	0	2
TAP	59	0	3
TAP	59	192	4
TAP	59	192	5
TAP	60	0	3
TAP	60	0	6
TAP	60	192	2
TAP	60	192	5
TAP	61	0	0
TAP	61	0	1
TAP	61	192	6
TAP	61	192	7
HLD	62	0	0	192
HLD	62	0	5	192
HLD	63	0	2	192
TAP	63	192	3
HLD	64	0	5	192
TAP	64	192	4
TAP	65	0	3
TAP	65	0	4
TAP	65	192	2
TAP	65	192	5
TAP	66	0	0
TAP	66	0	7
TAP	66	96	0
TAP	66	96	7
BRK	66	192	0
BRK	66	192	7
TAP	67	0	1
TAP	67	96	1
TAP	67	192	0
TAP	68	0	6
TAP	68	96	6
TAP	68	192	7
TAP	69	0	2
TAP	69	96	2
TAP	69	192	3
TAP	70	0	4
TAP	70	96	4
TAP	70	192	3
TAP	70	192	4
HLD	71	0	2	192
HLD	71	192	3	192
TAP	72	0	2
TAP	72	96	2
TAP	72	192	2
TAP	72	192	3
HLD	73	0	4	192
HLD	73	192	3	192
TAP	74	0	4
TAP	74	96	4
TAP	74	192	3
TAP	74	192	4
TAP	75	0	2
TAP	75	96	2
TAP	75	192	2
TAP	75	192	3
TAP	76	0	5
TAP	76	96	5
TAP	76	192	4
TAP	76	192	5
TAP	77	0	2
TAP	77	96	2
TAP	77	192	1
TAP	77	192	3
TAP	78	0	5
TAP	78	96	5
TAP	78	192	4
TAP	78	192	6
STR	79	0	3
SXR	79	0	3	96	480	0
STR	79	0	4
SXL	79	0	4	96	480	7
TAP	81	0	1
TAP	81	0	6
TAP	81	192	2
TAP	81	192	5
TAP	82	0	3
TAP	82	0	4
TAP	82	96	3
TAP	82	96	4
BRK	82	192	2
BRK	82	192	5
TAP	83	0	2
TAP	83	96	2
TAP	83	192	2
TAP	83	192	3
TAP	84	0	5
TAP	84	96	5
TAP	84	192	4
TAP	84	192	5
TAP	85	0	3
STR	85	0	6
SCR	85	0	6	96	288	3
TAP	86	192	2
TAP	86	192	5
TAP	87	0	1
TAP	87	96	1
TAP	87	192	0
TAP	87	192	1
TAP	88	0	6
TAP	88	96	6
TAP	88	192	6
TAP	88	192	7
HLD	89	0	0	192
HLD	89	0	7	192
TAP	90	0	7
TAP	90	96	0
TAP	90	192	1
TAP	90	192	6
TAP	91	0	5
TAP	91	96	5
TAP	91	192	4
TAP	91	192	5
TAP	92	0	2
TAP	92	96	2
TAP	92	192	2
TAP	92	192	3
STR	93	0	1
SCL	93	0	1	96	288	4
TAP	93	0	4
TAP	94	192	0
TAP	94	192	7
TAP	95	0	6
TAP	95	96	6
TAP	95	192	6
TAP	95	192	7
TAP	96	0	1
TAP	96	96	1
TAP	96	192	0
TAP	96	192	1
TAP	97	0	7
TAP	97	96	7
TAP	97	192	0
TAP	97	288	0
TAP	98	0	0
TAP	98	0	7
TAP	98	96	0
TAP	98	96	7
BRK	98	192	1
BRK	98	192	6
TAP	99	0	2
TAP	99	96	2
TAP	99	192	1
TAP	99	192	3
TAP	100	0	5
TAP	100	96	5
TAP	100	192	4
TAP	100	192	6
STR	101	0	0
SXL	101	0	0	96	288	2
STR	101	0	7
SXR	101	0	7	96	288	5
TAP	102	192	1
TAP	102	192	6
TAP	103	0	2
TAP	103	96	2
TAP	103	192	1
TAP	103	192	3
TAP	104	0	5
TAP	104	96	5
TAP	104	192	4
TAP	104	192	6
HLD	105	0	0	192
HLD	105	0	7	192
TAP	106	0	0
TAP	106	0	7
TAP	106	96	1
TAP	106	96	6
BRK	106	192	2
BRK	106	192	5
TAP	107	0	6
TAP	107	96	6
TAP	107	192	5
TAP	107	192	7
TAP	108	0	1
TAP	108	96	1
TAP	108	192	0
TAP	108	192	2
STR	109	0	3
SXR	109	0	3	96	288	1
STR	109	0	4
SXL	109	0	4	96	288	6
TAP	110	192	0
TAP	110	192	7
TAP	111	0	2
TAP	111	0	3
TAP	111	96	2
TAP	111	96	3
TAP	111	192	1
TAP	111	192	4
TAP	112	0	4
TAP	112	0	5
TAP	112	96	4
TAP	112	96	5
TAP	112	192	3
TAP	112	192	6
TAP	113	0	3
TAP	113	0	4
TAP	113	96	3
TAP	113	96	4
TAP	113	192	2
TAP	113	192	5
TAP	113	288	2
TAP	113	288	5
HLD	114	0	1	192
HLD	114	0	6	192
TAP	115	0	0
TAP	115	96	0
BRK	115	192	0
BRK	115	192	7
HLD	116	0	1	192
TAP	116	192	0
TAP	117	0	7
TAP	117	96	6
TAP	117	192	0
TAP	117	192	5
HLD	118	0	6	192
TAP	118	192	7
TAP	119	0	0
TAP	119	96	1
TAP	119	192	2
TAP	119	192	7
HLD	120	0	2	192
TAP	120	192	3
TAP	121	0	4
TAP	121	96	5
TAP	121	192	3
TAP	121	192	6
HLD	122	0	5	192
TAP	122	192	4
TAP	123	0	3
TAP	123	96	4
BRK	123	192	2
BRK	123	192	5
HLD	124	0	6	192
HLD	124	0	7	192
TAP	125	0	4
TAP	125	0	5
TAP	125	96	4
TAP	125	96	5
TAP	125	192	3
TAP	125	192	6
HLD	126	0	2	192
HLD	126	0	3	192
TAP	127	0	0
TAP	127	0	1
TAP	127	96	0
TAP	127	96	1
TAP	127	192	2
TAP	127	192	7
STR	128	0	0
SI_	128	0	0	96	288	4
STR	128	0	7
SI_	128	0	7	96	288	3
TAP	129	192	2
TAP	129	192	5
TAP	130	0	1
TAP	130	0	3
TAP	130	192	4
TAP	130	192	6
TAP	131	0	3
TAP	131	0	4
TAP	131	96	2
TAP	131	96	5
BRK	131	192	1
BRK	131	192	6
HLD	132	0	5	192
HLD	132	0	7	192
HLD	133	0	0	192
HLD	133	0	2	192
TAP	134	0	0
TAP	134	0	7
TAP	134	96	0
TAP	134	96	7
HLD	134	192	0	160
HLD	134	192	7	160

T_REC_TAP	328
T_REC_BRK	16
T_REC_XTP	0
T_REC_HLD	56
T_REC_XHO	0
T_REC_STR	20
T_REC_BST	0
T_REC_XST	0
T_REC_TTP	0
T_REC_THO	0
T_REC_SLD	20
T_REC_ALL	440
T_NUM_TAP	348
T_NUM_BRK	16
T_NUM_HLD	56
T_NUM_SLD	20
T_NUM_ALL	440
T_JUDGE_TAP	364
T_JUDGE_HLD	224
T_JUDGE_SLD	20
T_JUDGE_ALL	608
TTM_EACHPAIRS	139
TTM_SCR_TAP	174000
TTM_SCR_BRK	41600
TTM_SCR_HLD	56000
TTM_SCR_SLD	30000
TTM_SCR_ALL	301600
TTM_SCR_S	291000
TTM_SCR_SS	300000
TTM_RAT_ACV	10053

