VERSION	0.00.00	1.03.00
FES_MODE	0
BPM_DEF	230.000	230.000	230.000	230.000
MET_DEF	4	4
RESOLUTION	384
CLK_DEF	384
COMPATIBLE_CODE	MA2

BPM	0	0	230.000
MET	0	0	4	4

TAP	3	0	0
TAP	4	0	0
BRK	5	0	0
TAP	7	0	7
TAP	8	0	7
HLD	9	0	7	384
TAP	11	0	0
TAP	11	192	0
TAP	12	0	1
TAP	12	192	1
HLD	13	0	2	384
TAP	15	0	2
TAP	15	0	3
TAP	16	0	4
TAP	16	0	5
TAP	17	0	2
TAP	17	192	2
TAP	18	0	2
TAP	18	0	3
HLD	19	0	4	384
HLD	21	0	5	384
HLD	23	0	6	384
STR	25	0	7
SI_	25	0	7	96	288	3
TAP	27	0	2
TAP	28	0	2
STR	29	0	1
SI_	29	0	1	96	288	4
TAP	31	0	5
TAP	31	192	5
TAP	32	0	4
TAP	32	192	4
TAP	33	0	3
TAP	33	192	3
TAP	34	0	2
TAP	34	0	3
HLD	35	0	1	384
TAP	37	0	0
TAP	37	192	7
TAP	38	0	0
TAP	39	0	1
TAP	39	192	1
TAP	40	0	2
TAP	40	192	2
TAP	41	0	3
TAP	41	192	3
TAP	42	0	4
TAP	42	0	5
HLD	43	0	6	384
TAP	45	0	7
TAP	45	192	0
TAP	46	0	0
TAP	46	0	7
STR	47	0	7
SI_	47	0	7	96	288	4
STR	49	0	0
SI_	49	0	0	96	288	3
TAP	51	0	4
TAP	51	192	4
TAP	52	0	5
TAP	52	192	5
TAP	53	0	6
TAP	53	192	6
TAP	54	0	0
TAP	54	0	7
TAP	55	0	0
TAP	55	192	0
TAP	56	0	1
TAP	56	192	1
TAP	57	0	2
TAP	57	192	2
TAP	58	0	3
TAP	58	0	4
TAP	59	0	3
TAP	59	192	3
TAP	60	0	2
TAP	60	192	2
TAP	61	0	1
TAP	61	192	1
TAP	62	0	0
TAP	62	0	7
TAP	63	0	7
TAP	63	192	7
TAP	64	0	6
TAP	64	192	6
TAP	65	0	5
TAP	65	192	5
TAP	66	0	3
TAP	66	0	4
TAP	67	0	2
TAP	67	96	2
TAP	67	192	2
TAP	68	0	2
TAP	68	0	3
TAP	69	0	5
TAP	69	96	5
TAP	69	192	5
TAP	70	0	4
TAP	70	0	5
TAP	71	0	2
TAP	71	0	3
TAP	71	192	2
TAP	71	192	3
TAP	72	0	4
TAP	72	0	5
TAP	72	192	4
TAP	72	192	5
TAP	73	0	3
TAP	73	0	4
TAP	73	192	3
TAP	73	192	4
TAP	74	0	2
TAP	74	0	5
TAP	75	0	6
TAP	75	96	6
TAP	75	192	6
TAP	76	0	6
TAP	76	0	7
TAP	77	0	1
TAP	77	96	1
TAP	77	192	1
TAP	78	0	0
TAP	78	0	1
BRK	79	0	7
BRK	80	0	0
STR	81	0	7
SI_	81	0	7	96	288	3
TAP	83	0	0
TAP	83	192	0
TAP	84	0	1
TAP	84	192	1
HLD	85	0	2	384
TAP	87	0	3
TAP	87	192	3
TAP	88	0	4
TAP	88	192	4
TAP	89	0	5
TAP	89	192	5
TAP	90	0	4
TAP	90	0	5
TAP	91	0	6
TAP	91	192	6
TAP	92	0	7
TAP	92	192	7
HLD	93	0	0	384
TAP	95	0	7
TAP	95	192	7
TAP	96	0	6
TAP	96	192	6
TAP	97	0	5
TAP	97	192	5
TAP	98	0	4
TAP	98	192	4
HLD	99	0	3	384
HLD	101	0	4	384
TAP	103	0	3
TAP	103	192	3
TAP	104	0	2
TAP	104	192	2
TAP	105	0	1
TAP	105	192	1
TAP	106	0	0
TAP	106	0	1
TAP	107	0	7
TAP	107	192	7
TAP	108	0	0
TAP	108	192	0
HLD	109	0	7	384
TAP	111	0	0
TAP	111	192	0
TAP	112	0	1
TAP	112	192	1
TAP	113	0	2
TAP	113	192	2
BRK	114	0	3
BRK	114	0	4
TAP	116	0	4
TAP	116	0	5
TAP	116	192	4
TAP	116	192	5
TAP	117	0	4
TAP	117	0	5
TAP	118	0	2
TAP	118	0	3
TAP	118	192	2
TAP	118	192	3
TAP	119	0	2
TAP	119	0	3
TAP	120	0	0
TAP	120	0	1
TAP	120	192	0
TAP	120	192	1
TAP	121	0	0
TAP	121	0	1
TAP	122	0	6
TAP	122	0	7
TAP	122	192	6
TAP	122	192	7
TAP	123	0	6
TAP	123	0	7
TAP	124	0	5
TAP	124	192	5
TAP	125	0	4
TAP	125	0	5
TAP	126	0	2
TAP	126	192	2
TAP	127	0	2
TAP	127	0	3
TAP	128	0	3
TAP	128	192	3
TAP	129	0	4
TAP	129	192	4
TAP	130	0	3
TAP	130	192	4
TAP	131	0	2
TAP	131	0	5
TAP	132	0	1
TAP	133	0	1
STR	134	0	1
SI_	134	0	1	96	288	5

T_REC_TAP	191
T_REC_BRK	5
T_REC_XTP	0
T_REC_HLD	12
T_REC_XHO	0
T_REC_STR	6
T_REC_BST	0
T_REC_XST	0
T_REC_TTP	0
T_REC_THO	0
T_REC_SLD	6
T_REC_ALL	220
T_NUM_TAP	197
T_NUM_BRK	5
T_NUM_HLD	12
T_NUM_SLD	6
T_NUM_ALL	220
T_JUDGE_TAP	202
T_JUDGE_HLD	96
T_JUDGE_SLD	6
T_JUDGE_ALL	304
TTM_EACHPAIRS	39
TTM_SCR_TAP	98500
TTM_SCR_BRK	13000
TTM_SCR_HLD	12000
TTM_SCR_SLD	9000
TTM_SCR_ALL	132500
TTM_SCR_S	128050
TTM_SCR_SS	132000
TTM_RAT_ACV	10037

