VERSION	0.00.00	1.03.00
FES_MODE	0
BPM_DEF	195.000	195.000	195.000	195.000
MET_DEF	4	4
RESOLUTION	384
CLK_DEF	384
COMPATIBLE_CODE	MA2

BPM	0	0	195.000
MET	0	0	4	4
MET	50	0	4	4
MET	51	192	4	4
MET	52	0	4	4
MET	53	0	4	4

TAP	2	0	3
TAP	2	0	4
TAP	2	96	3
TAP	2	192	3
TAP	2	288	3
TAP	3	0	4
TAP	3	96	4
TAP	3	192	4
TAP	3	288	4
TAP	4	0	3
TAP	4	96	3
TAP	4	192	3
TAP	4	288	3
HLD	5	0	5	96
HLD	5	96	4	96
HLD	5	192	3	96
TAP	5	288	2
TAP	6	0	1
TAP	6	0	7
TAP	6	96	1
TAP	6	192	1
TAP	6	288	1
TAP	7	0	1
TAP	7	0	6
TAP	7	96	6
TAP	7	192	6
TAP	7	288	6
TAP	8	0	0
TAP	8	0	6
TAP	8	96	0
TAP	8	192	0
TAP	8	192	7
TAP	8	288	7
TAP	9	0	3
TAP	9	0	4
TAP	9	96	2
TAP	9	96	5
BRK	9	192	1
BRK	9	192	6
TAP	9	288	0
TAP	9	336	7
HLD	10	0	1	96
HLD	10	96	3	96
HLD	10	192	4	96
TAP	10	288	6
HLD	10	336	6	96
TAP	11	48	5
HLD	11	96	5	96
HLD	11	192	4	96
TAP	11	288	2
TAP	11	336	3
HLD	12	0	2	96
HLD	12	96	1	96
HLD	12	192	0	96
TAP	12	288	7
HLD	12	336	6	96
TAP	13	48	0
TAP	13	96	1
TAP	13	144	7
TAP	13	192	6
TAP	13	240	0
TAP	13	288	1
TAP	13	336	7
HLD	14	0	6	96
TAP	14	48	7
HLD	14	96	1	96
TAP	14	144	0
HLD	14	192	6	96
TAP	14	240	7
TAP	14	288	0
STR	14	336	1
SI_	14	336	1	96	48	5
TAP	15	48	7
STR	15	96	7
SF_	15	96	7	96	48	3
TAP	15	192	7
TAP	15	288	6
TAP	15	336	0
TAP	16	0	6
TAP	16	0	7
TAP	16	96	0
TAP	16	96	5
TAP	16	192	1
TAP	16	192	4
TAP	16	288	2
HLD	16	336	3	96
STR	17	48	4
SI_	17	48	4	96	96	0
TAP	17	96	4
TAP	17	192	7
TAP	17	240	6
TAP	17	288	5
TAP	17	336	4
TAP	18	0	1
TAP	18	0	3
TAP	18	48	2
TAP	18	96	2
TAP	18	144	3
TAP	18	144	6
TAP	18	192	5
TAP	18	240	1
TAP	18	240	4
TAP	18	288	2
TAP	18	336	3
HLD	18	336	7	96
TAP	19	48	0
TAP	19	96	1
TAP	19	96	6
TAP	19	144	2
TAP	19	192	3
TAP	19	192	4
TAP	19	240	5
TAP	19	288	1
TAP	19	288	6
TAP	19	336	7
STR	20	0	0
SCR	20	0	0	96	96	4
STR	20	96	4
SCR	20	96	4	96	96	0
STR	20	192	0
SI_	20	192	0	96	48	4
TAP	20	288	4
STR	21	0	7
SCL	21	0	7	96	96	3
STR	21	96	3
SCL	21	96	3	96	96	7
STR	21	192	7
SI_	21	192	7	96	48	3
TAP	21	288	3
TAP	22	0	0
TAP	22	24	1
TAP	22	48	2
TAP	22	72	3
TAP	22	96	4
TAP	22	120	5
TAP	22	144	6
TAP	22	168	7
TAP	22	192	0
TAP	22	216	1
TAP	22	240	2
TAP	22	264	3
TAP	22	288	4
TAP	22	312	5
TAP	22	336	6
TAP	22	360	7
TAP	23	0	0
TAP	23	0	4
TAP	23	24	3
TAP	23	48	2
TAP	23	72	1
TAP	23	96	0
TAP	23	120	7
TAP	23	144	6
TAP	23	168	5
TAP	23	192	4
TAP	23	216	3
TAP	23	240	2
TAP	23	264	1
TAP	23	288	0
TAP	23	312	7
TAP	23	336	6
TAP	23	360	5
TAP	24	0	0
TAP	24	0	4
TAP	24	192	3
TAP	24	192	7
TAP	25	0	3
TAP	25	0	4
STR	25	96	2
SI_	25	96	2	96	48	7
STR	25	96	3
SI_	25	96	3	96	48	6
BRK	25	192	2
BRK	25	192	3
HLD	26	0	2	96
TAP	26	96	7
HLD	26	192	5	96
TAP	26	288	0
HLD	26	336	0	96
TAP	27	48	1
TAP	27	96	2
TAP	27	144	3
HLD	27	192	4	144
TAP	27	240	5
TAP	27	288	5
TAP	27	336	5
TAP	28	0	5
TAP	28	48	4
TAP	28	96	3
TAP	28	96	5
HLD	28	144	2	96
TAP	28	240	7
STR	28	288	0
SI_	28	288	0	96	48	5
TAP	28	336	7
STR	29	0	0
SI_	29	0	0	96	48	4
STR	29	96	0
SI_	29	96	0	96	48	3
TAP	29	192	0
TAP	29	288	7
TAP	29	336	0
HLD	30	0	7	96
TAP	30	96	2
TAP	30	144	0
HLD	30	192	0	96
TAP	30	288	5
HLD	30	336	7	96
TAP	31	48	6
TAP	31	96	5
TAP	31	144	4
STR	31	192	3
SCL	31	192	3	96	48	0
TAP	32	0	5
TAP	32	0	7
TAP	32	48	6
TAP	32	96	7
TAP	32	144	0
TAP	32	144	2
TAP	32	192	1
TAP	32	240	0
TAP	32	288	5
TAP	32	288	7
TAP	32	336	6
TAP	33	0	0
TAP	33	0	7
TAP	33	96	3
TAP	33	96	4
TAP	33	192	1
TAP	33	192	6
TAP	33	288	4
TAP	33	336	3
HLD	34	0	5	96
TAP	34	96	0
HLD	34	192	2	96
TAP	34	288	7
HLD	34	336	7	96
TAP	35	48	6
TAP	35	96	5
TAP	35	144	4
HLD	35	192	3	144
TAP	35	240	2
TAP	35	288	2
TAP	35	336	2
TAP	36	0	2
TAP	36	48	3
TAP	36	96	2
TAP	36	96	4
HLD	36	144	5	96
TAP	36	240	0
STR	36	288	7
SI_	36	288	7	96	48	2
TAP	36	336	0
STR	37	0	7
SI_	37	0	7	96	48	3
STR	37	96	7
SI_	37	96	7	96	48	4
TAP	37	192	7
TAP	37	288	0
TAP	37	336	7
HLD	38	0	0	96
TAP	38	96	5
TAP	38	144	7
HLD	38	192	7	96
TAP	38	288	2
HLD	38	336	0	96
TAP	39	48	1
TAP	39	96	2
TAP	39	144	3
STR	39	192	4
SCR	39	192	4	96	48	7
TAP	40	0	0
TAP	40	0	3
TAP	40	48	7
TAP	40	96	6
TAP	40	144	4
TAP	40	144	7
TAP	40	192	0
TAP	40	240	1
TAP	40	288	0
TAP	40	288	3
TAP	40	336	7
TAP	41	0	2
TAP	41	0	6
TAP	41	96	3
TAP	41	96	4
BRK	41	192	1
BRK	41	192	5
TAP	41	288	0
TAP	41	336	7
TAP	42	0	0
TAP	42	48	5
TAP	42	72	4
TAP	42	96	5
TAP	42	144	2
TAP	42	168	3
TAP	42	192	2
TAP	42	240	6
TAP	42	264	4
TAP	42	288	6
TAP	42	336	1
TAP	42	360	3
TAP	43	0	1
TAP	43	48	4
TAP	43	96	5
TAP	43	144	6
STR	43	192	7
SI_	43	192	7	96	48	3
TAP	43	240	0
TAP	43	288	0
TAP	43	336	0
TAP	44	0	0
TAP	44	0	4
TAP	44	48	2
TAP	44	72	3
TAP	44	96	2
TAP	44	144	3
TAP	44	144	4
TAP	44	192	5
TAP	44	216	4
TAP	44	240	5
TAP	44	288	3
TAP	44	288	4
TAP	44	336	2
TAP	44	336	5
STR	45	0	1
SI_	45	0	1	96	48	4
STR	45	96	0
SI_	45	96	0	96	48	5
TAP	45	192	1
TAP	45	288	7
TAP	45	336	0
TAP	46	0	7
TAP	46	48	1
TAP	46	72	0
TAP	46	96	1
TAP	46	144	6
TAP	46	168	7
TAP	46	192	6
TAP	46	240	2
TAP	46	264	0
TAP	46	288	2
TAP	46	336	5
TAP	46	360	7
TAP	47	0	5
TAP	47	48	4
TAP	47	96	3
TAP	47	144	2
STR	47	192	0
SI_	47	192	0	96	48	4
STR	47	192	1
SI_	47	192	1	96	48	4
TAP	48	0	6
TAP	48	24	7
TAP	48	48	6
TAP	48	72	7
TAP	48	96	6
TAP	48	144	1
TAP	48	168	0
TAP	48	192	1
TAP	48	216	0
TAP	48	240	1
TAP	48	288	7
TAP	48	312	0
TAP	48	336	7
TAP	49	0	1
TAP	49	0	6
TAP	49	96	3
TAP	49	96	4
TAP	49	192	0
TAP	49	192	7
TAP	49	288	7
TAP	49	336	0
TAP	50	0	7
TAP	50	48	2
TAP	50	72	3
TAP	50	96	2
TAP	50	144	5
TAP	50	168	4
TAP	50	192	5
TAP	50	240	1
TAP	50	264	3
TAP	50	288	1
TAP	50	336	6
TAP	50	360	4
TAP	51	0	6
TAP	51	48	3
TAP	51	96	2
TAP	51	144	1
STR	51	192	0
SI_	51	192	0	96	48	4
TAP	51	240	7
TAP	51	288	7
TAP	51	336	7
TAP	52	0	3
TAP	52	0	7
TAP	52	48	5
TAP	52	72	4
TAP	52	96	5
TAP	52	144	3
TAP	52	144	4
TAP	52	192	2
TAP	52	216	3
TAP	52	240	2
TAP	52	288	3
TAP	52	288	4
TAP	52	336	1
TAP	52	336	6
TAP	53	0	1
TAP	53	24	2
TAP	53	48	3
TAP	53	72	4
TAP	53	96	5
TAP	53	120	6
TAP	53	144	7
TAP	53	168	0
TAP	53	192	1
TAP	53	192	6
TAP	53	288	0
TAP	53	336	7
TAP	54	0	0
TAP	54	48	6
TAP	54	72	7
TAP	54	96	6
TAP	54	144	1
TAP	54	168	0
TAP	54	192	1
TAP	54	240	5
TAP	54	264	7
TAP	54	288	5
TAP	54	336	2
TAP	54	360	0
TAP	55	0	2
TAP	55	48	3
TAP	55	96	4
TAP	55	144	5
STR	55	192	6
SI_	55	192	6	96	48	3
STR	55	192	7
SI_	55	192	7	96	48	3
TAP	56	0	1
TAP	56	24	0
TAP	56	48	1
TAP	56	72	0
TAP	56	96	1
TAP	56	144	6
TAP	56	168	7
TAP	56	192	6
TAP	56	216	7
TAP	56	240	6
TAP	56	288	0
TAP	56	312	7
TAP	56	336	0
BRK	57	0	1
BRK	57	0	6
BRK	57	96	3
BRK	57	96	4
BRK	57	192	0
BRK	57	192	7
TAP	57	288	1
TAP	57	288	6
STR	58	0	1
SCR	58	0	1	96	48	4
TAP	58	96	7
STR	58	192	6
SCL	58	192	6	96	48	3
TAP	58	288	0
STR	59	0	1
SI_	59	0	1	96	48	3
TAP	59	48	1
STR	59	96	7
SI_	59	96	7	96	48	5
TAP	59	144	7
STR	59	192	0
SI_	59	192	0	96	48	4
TAP	59	288	0
TAP	59	336	7
STR	60	0	6
SCL	60	0	6	96	48	3
TAP	60	96	0
STR	60	192	1
SCR	60	192	1	96	48	4
TAP	60	288	7
STR	61	0	6
SI_	61	0	6	96	48	4
TAP	61	48	6
STR	61	96	0
SI_	61	96	0	96	48	2
TAP	61	144	0
STR	61	192	7
SI_	61	192	7	96	48	3
TAP	61	288	7
STR	62	0	2
SCL	62	0	2	96	48	7
TAP	62	96	4
STR	62	192	5
SCR	62	192	5	96	48	0
TAP	62	288	3
STR	63	0	2
SI_	63	0	2	96	48	0
TAP	63	48	2
STR	63	96	4
SI_	63	96	4	96	48	6
TAP	63	144	4
STR	63	192	3
SI_	63	192	3	96	48	7
TAP	63	288	3
TAP	63	336	4
HLD	64	0	5	96
HLD	64	96	4	96
HLD	64	192	3	96
HLD	64	288	2	96
TAP	65	0	1
TAP	65	48	2
TAP	65	96	3
TAP	65	144	4
STR	65	192	5
SCL	65	192	5	96	48	2
STR	66	0	1
SI_	66	0	1	96	48	6
STR	66	96	5
SI_	66	96	5	96	48	2
STR	66	192	1
SI_	66	192	1	96	48	4
STR	66	288	5
SI_	66	288	5	96	48	0
TAP	67	0	2
TAP	67	48	3
TAP	67	96	4
TAP	67	144	5
TAP	67	192	4
TAP	67	192	6
TAP	67	288	7
TAP	67	336	0
STR	68	0	6
SI_	68	0	6	96	48	1
STR	68	96	2
SI_	68	96	2	96	48	5
STR	68	192	6
SI_	68	192	6	96	48	3
STR	68	288	2
SI_	68	288	2	96	48	7
TAP	69	0	5
TAP	69	48	4
TAP	69	96	3
TAP	69	144	2
HLD	69	192	1	96
HLD	69	192	3	96
STR	70	0	1
SI_	70	0	1	96	48	4
STR	70	0	5
SI_	70	0	5	96	48	0
TAP	70	96	1
TAP	70	96	5
STR	70	192	2
SI_	70	192	2	96	48	7
STR	70	192	6
SI_	70	192	6	96	48	3
TAP	70	288	2
TAP	70	288	6
TAP	71	0	0
TAP	71	48	2
TAP	71	96	4
TAP	71	144	6
TAP	71	192	0
TAP	71	192	4
TAP	71	288	1
TAP	71	336	7
STR	72	0	0
SCL	72	0	0	96	96	4
STR	72	96	4
SCL	72	96	4	96	96	0
STR	72	192	0
SCL	72	192	0	96	84	4
TAP	72	288	4
TAP	73	0	3
TAP	73	24	2
TAP	73	48	1
TAP	73	72	0
TAP	73	96	7
TAP	73	120	6
TAP	73	144	5
TAP	73	168	4
TAP	73	192	3
TAP	73	192	7
TAP	74	0	0
TAP	74	192	0
TAP	75	0	0
STR	75	96	0
SI_	75	96	0	96	48	4
BRK	75	192	0
TAP	75	192	7
TAP	76	0	3
TAP	76	0	5
TAP	76	48	4
TAP	76	96	2
TAP	76	96	4
TAP	76	144	3
TAP	76	192	3
TAP	76	192	6
TAP	76	240	5
TAP	76	288	1
TAP	76	288	4
TAP	76	336	2
TAP	77	0	3
TAP	77	0	7
TAP	77	48	2
TAP	77	48	6
TAP	77	96	1
TAP	77	96	5
TAP	77	144	0
TAP	77	144	4
TAP	77	192	3
STR	77	192	7
SI_	77	192	7	96	48	3
TAP	77	288	5
STR	78	0	5
SUR	78	0	5	96	48	1
TAP	78	96	3
STR	78	192	2
SCL	78	192	2	96	48	7
TAP	78	288	4
STR	79	0	5
SI_	79	0	5	96	48	0
TAP	79	48	5
STR	79	96	4
SI_	79	96	4	96	48	1
TAP	79	144	4
TAP	79	192	5
STR	79	288	7
SI_	79	288	7	96	48	3
TAP	79	336	7
STR	80	0	0
SI_	80	0	0	96	48	4
TAP	80	0	7
TAP	80	96	0
STR	80	96	6
SI_	80	96	6	96	48	2
STR	80	192	1
SI_	80	192	1	96	48	5
TAP	80	192	6
TAP	80	288	1
STR	80	288	4
SCR	80	288	4	96	192	3
TAP	81	0	3
TAP	81	0	4
TAP	81	288	0
TAP	81	288	7
STR	82	0	7
SCL	82	0	7	96	48	4
TAP	82	96	0
STR	82	192	0
SCR	82	192	0	96	48	3
TAP	82	288	7
TAP	83	0	4
TAP	83	0	6
TAP	83	48	5
TAP	83	96	1
TAP	83	96	3
TAP	83	144	2
TAP	83	192	4
TAP	83	192	6
TAP	83	288	4
TAP	83	336	3
TAP	84	0	2
TAP	84	0	4
TAP	84	48	3
TAP	84	96	3
TAP	84	96	5
TAP	84	144	4
TAP	84	192	1
TAP	84	192	4
TAP	84	240	2
TAP	84	288	3
TAP	84	288	6
TAP	84	336	5
TAP	85	0	0
TAP	85	0	4
TAP	85	48	1
TAP	85	48	5
TAP	85	96	2
TAP	85	96	6
TAP	85	144	3
TAP	85	144	7
STR	85	192	0
SI_	85	192	0	96	48	4
TAP	85	192	4
TAP	85	288	2
STR	86	0	2
SUL	86	0	2	96	48	6
TAP	86	96	4
STR	86	192	5
SCR	86	192	5	96	48	0
TAP	86	288	3
STR	87	0	2
SI_	87	0	2	96	48	7
TAP	87	48	2
STR	87	96	3
SI_	87	96	3	96	48	6
TAP	87	144	3
TAP	87	192	2
STR	87	288	0
SI_	87	288	0	96	48	4
TAP	87	336	0
STR	88	0	0
SI_	88	0	0	96	48	5
STR	88	96	0
SI_	88	96	0	96	48	3
STR	88	192	0
SI_	88	192	0	96	48	4
STR	88	288	0
SCL	88	288	0	96	288	0
SCR	88	288	0	96	288	0
TAP	89	0	0
STR	90	0	2
SI_	90	0	2	96	48	5
STR	90	0	3
SI_	90	0	3	96	48	6
TAP	90	96	2
TAP	90	96	3
TAP	90	192	7
TAP	90	240	0
TAP	90	288	7
TAP	90	336	6
STR	91	0	5
SI_	91	0	5	96	48	1
STR	91	0	6
SI_	91	0	6	96	48	2
TAP	91	96	5
TAP	91	96	6
TAP	91	192	0
TAP	91	240	7
TAP	91	288	0
TAP	91	336	1
STR	92	0	0
SI_	92	0	0	96	48	4
STR	92	0	1
SI_	92	0	1	96	48	5
TAP	92	96	0
TAP	92	96	1
TAP	92	192	7
TAP	92	240	0
STR	92	288	5
SI_	92	288	5	96	48	0
TAP	92	336	5
STR	93	0	3
SI_	93	0	3	96	48	7
TAP	93	48	3
STR	93	96	4
SI_	93	96	4	96	48	0
TAP	93	144	4
STR	93	192	2
SI_	93	192	2	96	48	7
TAP	93	240	2
TAP	93	288	5
TAP	93	336	5
TAP	94	0	0
TAP	94	0	6
TAP	94	48	2
TAP	94	48	4
TAP	94	96	1
TAP	94	96	5
TAP	94	144	3
TAP	94	144	4
TAP	94	192	2
TAP	94	192	6
TAP	94	240	3
TAP	94	240	5
TAP	94	288	1
TAP	94	288	7
STR	94	336	2
SCL	94	336	2	96	96	5
TAP	94	336	4
TAP	95	48	4
STR	95	96	4
SF_	95	96	4	96	48	0
TAP	95	192	4
TAP	95	288	2
TAP	95	336	3
HLD	96	0	4	48
HLD	96	0	5	48
HLD	96	96	2	48
HLD	96	96	3	48
HLD	96	192	4	48
HLD	96	192	6	48
HLD	96	288	1	48
HLD	96	288	3	48
HLD	97	0	5	48
HLD	97	0	7	48
HLD	97	96	0	48
HLD	97	96	2	48
STR	97	192	1
SI_	97	192	1	96	48	4
TAP	97	240	0
TAP	97	288	7
TAP	97	336	6
TAP	98	0	3
TAP	98	0	5
TAP	98	48	4
TAP	98	96	4
TAP	98	144	1
TAP	98	144	3
TAP	98	192	2
TAP	98	240	5
TAP	98	240	7
TAP	98	288	6
STR	98	336	0
SCL	98	336	0	96	48	5
TAP	98	336	2
TAP	99	48	1
TAP	99	96	2
STR	99	144	3
SCL	99	144	3	96	48	0
TAP	99	192	4
TAP	99	240	5
TAP	99	288	6
TAP	99	336	7
STR	100	0	0
SCR	100	0	0	96	96	4
STR	100	96	4
SCR	100	96	4	96	96	0
STR	100	192	0
SI_	100	192	0	96	48	4
TAP	100	288	4
STR	101	0	7
SCL	101	0	7	96	96	3
STR	101	96	3
SCL	101	96	3	96	96	7
STR	101	192	7
SI_	101	192	7	96	48	3
TAP	101	288	3
TAP	102	0	2
TAP	102	24	3
TAP	102	48	2
TAP	102	72	3
TAP	102	96	1
TAP	102	120	4
TAP	102	144	1
TAP	102	168	4
TAP	102	192	0
TAP	102	216	5
TAP	102	240	0
TAP	102	264	5
TAP	102	288	7
TAP	102	312	6
TAP	102	336	7
TAP	102	360	6
TAP	103	0	4
TAP	103	24	5
TAP	103	48	4
TAP	103	72	5
TAP	103	96	3
TAP	103	120	6
TAP	103	144	3
TAP	103	168	6
TAP	103	192	2
TAP	103	216	7
TAP	103	240	2
TAP	103	264	7
TAP	103	288	1
TAP	103	312	0
TAP	103	336	1
TAP	103	360	0
TAP	104	0	1
TAP	104	24	2
TAP	104	48	3
TAP	104	72	4
TAP	104	96	5
TAP	104	120	6
TAP	104	144	7
TAP	104	168	0
TAP	104	192	1
TAP	104	204	2
TAP	104	216	3
TAP	104	228	4
TAP	104	240	5
TAP	104	252	6
TAP	104	264	7
TAP	104	276	0
TAP	104	288	1
TAP	104	300	2
TAP	104	312	3
TAP	104	324	4
TAP	104	336	5
TAP	104	348	6
TAP	104	360	7
TAP	104	372	0
STR	105	0	1
SF_	105	0	1	96	48	5
BRK	105	96	1

T_REC_TAP	617
T_REC_BRK	14
T_REC_XTP	0
T_REC_HLD	52
T_REC_XHO	0
T_REC_STR	103
T_REC_BST	0
T_REC_XST	0
T_REC_TTP	0
T_REC_THO	0
T_REC_SLD	104
T_REC_ALL	890
T_NUM_TAP	720
T_NUM_BRK	14
T_NUM_HLD	52
T_NUM_SLD	104
T_NUM_ALL	890
T_JUDGE_TAP	734
T_JUDGE_HLD	94
T_JUDGE_SLD	104
T_JUDGE_ALL	932
TTM_EACHPAIRS	116
TTM_SCR_TAP	360000
TTM_SCR_BRK	36400
TTM_SCR_HLD	52000
TTM_SCR_SLD	156000
TTM_SCR_ALL	604400
TTM_SCR_S	584950
TTM_SCR_SS	603000
TTM_RAT_ACV	10023

