VERSION	0.00.00	1.03.00
FES_MODE	0
BPM_DEF	195.000	195.000	195.000	195.000
MET_DEF	4	4
RESOLUTION	384
CLK_DEF	384
COMPATIBLE_CODE	MA2

BPM	0	0	195.000
MET	0	0	4	4

HLD	2	0	5	384
HLD	3	0	4	384
HLD	4	0	3	384
TAP	5	0	2
TAP	5	192	2
TAP	5	192	3
TAP	5	288	2
TAP	5	288	3
HLD	6	0	2	384
HLD	7	0	3	384
TAP	8	0	4
TAP	8	192	4
TAP	9	0	4
TAP	9	0	5
TAP	9	96	3
TAP	9	96	4
TAP	9	192	2
TAP	9	192	3
TAP	9	288	3
TAP	9	288	4
HLD	10	0	0	96
HLD	10	96	1	96
TAP	10	192	2
TAP	10	288	7
TAP	10	336	7
HLD	11	0	6	96
HLD	11	96	5	96
TAP	11	192	4
TAP	11	288	0
TAP	11	336	0
HLD	12	0	1	96
HLD	12	96	2	96
TAP	12	192	3
TAP	12	288	5
TAP	12	336	5
TAP	13	0	3
TAP	13	48	3
TAP	13	96	4
TAP	13	144	4
TAP	13	192	2
TAP	13	240	2
TAP	13	288	3
TAP	13	288	4
HLD	14	0	0	96
HLD	14	96	2	96
HLD	14	192	0	96
HLD	14	288	7	96
HLD	15	0	5	96
HLD	15	96	7	96
HLD	15	192	0	96
TAP	15	288	2
HLD	16	0	4	96
HLD	16	96	6	96
HLD	16	192	4	96
HLD	16	288	3	96
HLD	17	0	1	96
HLD	17	96	3	96
HLD	17	192	4	96
TAP	17	288	6
STR	18	0	5
SI_	18	0	5	96	96	2
STR	18	192	1
SI_	18	192	1	96	96	6
HLD	19	0	5	96
HLD	19	96	7	96
HLD	19	192	0	96
TAP	19	288	2
TAP	20	0	2
TAP	20	0	3
TAP	20	96	0
TAP	20	96	5
TAP	20	192	4
TAP	20	192	5
TAP	20	288	2
TAP	20	288	7
TAP	21	0	0
TAP	21	0	1
TAP	21	96	3
TAP	21	96	6
TAP	21	192	6
TAP	21	192	7
TAP	21	288	1
TAP	21	288	4
STR	22	0	0
SCR	22	0	0	96	240	6
STR	23	0	7
SCL	23	0	7	96	240	1
TAP	24	0	0
TAP	24	48	0
TAP	24	96	0
TAP	24	192	7
TAP	24	240	7
TAP	24	288	7
TAP	25	0	0
TAP	25	0	7
TAP	25	96	1
TAP	25	96	6
TAP	25	192	2
TAP	25	192	5
TAP	25	288	4
TAP	25	336	3
HLD	26	0	3	96
TAP	26	96	0
HLD	26	192	4	96
TAP	26	288	7
TAP	26	336	7
TAP	27	48	0
TAP	27	96	1
TAP	27	144	7
TAP	27	192	6
TAP	27	288	2
TAP	27	288	5
TAP	28	0	4
TAP	28	48	4
TAP	28	96	3
HLD	28	144	3	96
TAP	28	240	4
TAP	28	288	3
TAP	28	288	4
TAP	29	0	2
TAP	29	0	7
TAP	29	96	3
TAP	29	96	6
TAP	29	192	4
TAP	29	192	5
TAP	29	288	3
TAP	29	336	3
HLD	30	0	4	96
TAP	30	96	7
HLD	30	192	3	96
TAP	30	288	0
TAP	30	336	0
TAP	31	48	7
TAP	31	96	6
TAP	31	144	0
TAP	31	192	1
TAP	31	288	2
TAP	31	288	5
TAP	32	0	3
TAP	32	48	4
TAP	32	96	3
TAP	32	144	5
TAP	32	192	4
TAP	32	240	6
TAP	32	288	2
TAP	32	336	3
TAP	33	0	1
TAP	33	96	2
TAP	33	96	5
TAP	33	192	4
TAP	33	240	3
TAP	33	288	3
TAP	33	336	4
HLD	34	0	4	96
TAP	34	96	7
HLD	34	192	3	96
TAP	34	288	0
TAP	34	336	0
TAP	35	48	7
TAP	35	96	6
TAP	35	144	0
TAP	35	192	1
TAP	35	288	2
TAP	35	288	5
TAP	36	0	3
TAP	36	48	3
TAP	36	96	4
HLD	36	144	4	96
TAP	36	240	3
TAP	36	288	3
TAP	36	288	4
HLD	37	0	0	48
HLD	37	0	5	48
HLD	37	96	1	48
HLD	37	96	4	48
TAP	37	192	2
TAP	37	192	3
TAP	37	288	4
TAP	37	336	4
HLD	38	0	3	96
TAP	38	96	0
HLD	38	192	4	96
TAP	38	288	7
TAP	38	336	7
TAP	39	48	0
TAP	39	96	1
TAP	39	144	7
TAP	39	192	6
TAP	39	288	2
TAP	39	288	5
TAP	40	0	4
TAP	40	48	3
TAP	40	96	4
TAP	40	144	2
TAP	40	192	3
TAP	40	240	1
TAP	40	288	5
TAP	40	336	4
TAP	41	0	6
TAP	41	96	3
TAP	41	96	4
TAP	41	192	1
TAP	41	192	6
TAP	41	288	0
TAP	41	336	0
TAP	42	0	0
STR	42	0	7
SI_	42	0	7	96	48	3
STR	42	192	0
SI_	42	192	0	96	48	4
TAP	42	192	7
TAP	43	0	7
TAP	43	48	7
TAP	43	96	0
TAP	43	144	0
TAP	43	192	1
TAP	43	192	6
TAP	43	288	3
TAP	43	288	4
TAP	44	0	4
TAP	44	48	3
TAP	44	96	5
HLD	44	144	2	144
TAP	44	240	0
TAP	44	288	0
TAP	45	0	0
TAP	45	0	1
TAP	45	96	6
TAP	45	96	7
TAP	45	192	4
TAP	45	192	5
TAP	45	288	7
TAP	45	336	7
STR	46	0	1
SI_	46	0	1	96	48	4
TAP	46	0	7
TAP	46	192	0
STR	46	192	6
SI_	46	192	6	96	48	3
TAP	47	0	0
TAP	47	48	0
TAP	47	96	7
TAP	47	144	7
TAP	47	192	1
TAP	47	192	6
TAP	47	288	3
TAP	47	288	4
TAP	48	0	3
TAP	48	48	4
TAP	48	96	1
TAP	48	144	4
TAP	48	192	3
TAP	48	240	6
TAP	48	288	3
TAP	48	336	4
TAP	49	0	2
TAP	49	0	5
TAP	49	96	0
TAP	49	96	7
TAP	49	192	4
TAP	49	192	6
TAP	49	288	7
TAP	49	336	7
STR	50	0	0
SI_	50	0	0	96	48	4
TAP	50	0	7
TAP	50	192	0
STR	50	192	7
SI_	50	192	7	96	48	3
TAP	51	0	0
TAP	51	48	0
TAP	51	96	7
TAP	51	144	7
TAP	51	192	1
TAP	51	192	6
TAP	51	288	3
TAP	51	288	4
TAP	52	0	3
TAP	52	48	4
TAP	52	96	2
HLD	52	144	5	144
TAP	52	240	7
TAP	52	288	7
TAP	53	0	6
TAP	53	0	7
TAP	53	96	0
TAP	53	96	1
TAP	53	192	2
TAP	53	192	7
TAP	53	288	0
TAP	53	336	0
TAP	54	0	0
STR	54	0	6
SI_	54	0	6	96	48	3
STR	54	192	1
SI_	54	192	1	96	48	4
TAP	54	192	7
TAP	55	0	7
TAP	55	48	7
TAP	55	96	0
TAP	55	144	0
TAP	55	192	1
TAP	55	192	6
TAP	55	288	3
TAP	55	288	4
TAP	56	0	4
TAP	56	48	3
TAP	56	96	6
TAP	56	144	3
TAP	56	192	4
TAP	56	240	1
TAP	56	288	4
TAP	56	336	3
TAP	57	0	2
TAP	57	0	5
TAP	57	96	0
TAP	57	96	7
BRK	57	192	1
BRK	57	192	6
TAP	58	0	3
STR	58	0	4
SCR	58	0	4	96	48	6
TAP	58	192	4
STR	58	192	5
SI_	58	192	5	96	48	7
TAP	59	0	1
TAP	59	48	1
TAP	59	96	4
TAP	59	144	4
TAP	59	192	2
TAP	59	192	3
TAP	59	288	1
TAP	59	288	4
STR	60	0	3
SCL	60	0	3	96	48	1
TAP	60	0	4
STR	60	192	2
SI_	60	192	2	96	48	0
TAP	60	192	3
TAP	61	0	6
TAP	61	48	6
TAP	61	96	3
TAP	61	144	3
TAP	61	192	4
TAP	61	192	5
TAP	61	288	3
TAP	61	288	6
TAP	62	0	3
STR	62	0	4
SCR	62	0	4	96	48	6
TAP	62	192	4
STR	62	192	5
SI_	62	192	5	96	48	7
TAP	63	0	1
TAP	63	48	1
TAP	63	96	4
TAP	63	144	4
TAP	63	192	2
TAP	63	192	3
TAP	63	288	1
TAP	63	288	4
HLD	64	0	2	96
HLD	64	96	0	96
HLD	64	192	7	96
TAP	64	288	5
TAP	65	0	3
TAP	65	48	3
TAP	65	96	4
TAP	65	144	3
TAP	65	192	2
TAP	65	192	5
STR	66	0	0
SCR	66	0	0	96	48	2
TAP	66	0	7
TAP	66	192	0
STR	66	192	1
SI_	66	192	1	96	48	3
TAP	67	0	7
TAP	67	48	7
TAP	67	96	4
TAP	67	144	4
TAP	67	192	5
TAP	67	192	6
TAP	67	288	4
TAP	67	288	7
TAP	68	0	0
STR	68	0	7
SCL	68	0	7	96	48	5
STR	68	192	6
SI_	68	192	6	96	48	4
TAP	68	192	7
TAP	69	0	0
TAP	69	48	0
TAP	69	96	3
TAP	69	144	3
TAP	69	192	1
TAP	69	192	2
TAP	69	288	0
TAP	69	288	3
STR	70	0	0
SCR	70	0	0	96	48	2
TAP	70	0	7
TAP	70	192	0
STR	70	192	1
SI_	70	192	1	96	48	3
TAP	71	0	7
TAP	71	48	7
TAP	71	96	4
TAP	71	144	4
TAP	71	192	5
TAP	71	192	6
TAP	71	288	4
TAP	71	288	7
STR	72	0	4
SI_	72	0	4	96	48	7
TAP	72	0	5
TAP	72	192	2
STR	72	192	3
SI_	72	192	3	96	48	0
TAP	73	0	3
TAP	73	0	4
TAP	73	96	2
TAP	73	96	5
TAP	73	192	0
TAP	73	192	7
STR	73	288	6
SXL	73	288	6	96	288	1
TAP	75	0	3
TAP	75	0	4
TAP	75	48	3
TAP	75	48	4
TAP	75	96	3
TAP	75	96	4
BRK	75	192	1
BRK	75	192	6
TAP	75	288	7
TAP	75	336	7
HLD	76	0	0	96
HLD	76	96	3	96
HLD	76	192	4	96
TAP	76	288	7
TAP	77	0	6
TAP	77	48	6
TAP	77	96	5
TAP	77	144	5
TAP	77	192	4
TAP	77	192	7
TAP	77	288	2
TAP	77	288	3
STR	78	0	6
SI_	78	0	6	96	48	1
STR	78	192	2
SI_	78	192	2	96	48	5
TAP	79	0	6
TAP	79	48	6
TAP	79	96	7
TAP	79	144	6
TAP	79	192	0
TAP	79	192	5
TAP	79	288	7
TAP	79	336	7
STR	80	0	0
SI_	80	0	0	96	48	3
STR	80	96	7
SI_	80	96	7	96	48	4
STR	80	192	0
SI_	80	192	0	96	48	4
TAP	80	288	7
TAP	80	336	7
STR	81	0	6
SCR	81	0	6	96	96	1
BRK	81	288	0
HLD	82	0	7	96
HLD	82	96	4	96
HLD	82	192	3	96
TAP	82	288	0
TAP	83	0	1
TAP	83	48	1
TAP	83	96	2
TAP	83	144	2
TAP	83	192	0
TAP	83	192	3
TAP	83	288	4
TAP	83	288	5
STR	84	0	1
SI_	84	0	1	96	48	6
STR	84	192	5
SI_	84	192	5	96	48	2
TAP	85	0	1
TAP	85	48	1
TAP	85	96	0
TAP	85	144	1
TAP	85	192	2
TAP	85	192	7
TAP	85	288	0
TAP	85	336	0
STR	86	0	7
SI_	86	0	7	96	48	4
STR	86	96	0
SI_	86	96	0	96	48	3
STR	86	192	7
SI_	86	192	7	96	48	3
TAP	86	288	0
TAP	86	336	0
TAP	87	0	7
TAP	87	48	7
TAP	87	96	0
TAP	87	144	7
TAP	87	192	1
TAP	87	192	6
TAP	87	288	3
TAP	87	288	4
HLD	88	0	6	96
HLD	88	96	4	96
HLD	88	192	3	96
HLD	88	288	1	96
BST	89	0	0
SCL	89	0	0	96	192	2
HLD	90	0	4	96
HLD	90	96	6	96
TAP	90	192	7
TAP	90	288	0
TAP	90	336	0
HLD	91	0	3	96
HLD	91	96	1	96
TAP	91	192	0
TAP	91	288	7
TAP	91	336	7
HLD	92	0	4	96
HLD	92	96	6	96
TAP	92	192	7
TAP	92	288	0
TAP	92	336	0
HLD	93	0	3	96
HLD	93	96	1	96
TAP	93	192	0
TAP	93	288	0
TAP	93	288	7
HLD	94	0	2	96
TAP	94	0	3
TAP	94	48	3
TAP	94	96	3
TAP	94	192	4
HLD	94	192	5	96
TAP	94	240	4
TAP	94	288	4
HLD	95	0	6	96
TAP	95	0	7
TAP	95	48	7
TAP	95	96	7
TAP	95	192	0
HLD	95	192	1	96
TAP	95	240	0
TAP	95	288	0
STR	96	0	7
SCL	96	0	7	96	96	4
STR	96	192	3
SCL	96	192	3	96	96	0
HLD	97	0	7	96
TAP	97	96	0
TAP	97	192	4
TAP	97	240	4
TAP	97	288	3
TAP	98	0	2
TAP	98	48	2
TAP	98	96	3
TAP	98	144	2
TAP	98	144	4
TAP	98	240	3
TAP	98	240	5
TAP	98	336	1
TAP	98	336	4
TAP	99	48	3
TAP	99	48	6
TAP	99	96	3
TAP	99	96	6
TAP	99	192	3
TAP	99	192	4
TAP	99	288	1
TAP	99	288	6
STR	100	0	0
SCR	100	0	0	96	96	3
STR	100	192	4
SCR	100	192	4	96	96	7
HLD	101	0	0	288
HLD	101	144	7	144
TAP	102	0	0
TAP	102	48	0
TAP	102	96	1
TAP	102	144	1
TAP	102	192	2
TAP	102	240	2
TAP	102	288	3
TAP	102	336	3
TAP	103	0	4
TAP	103	48	4
TAP	103	96	5
TAP	103	144	5
TAP	103	192	6
TAP	103	240	6
TAP	103	288	7
TAP	103	336	7
TAP	104	0	5
TAP	104	48	5
TAP	104	96	3
TAP	104	144	3
TAP	104	192	1
TAP	104	240	1
TAP	104	288	7
BRK	105	0	1
BRK	105	0	6
TAP	105	96	3
TAP	105	96	4

T_REC_TAP	448
T_REC_BRK	7
T_REC_XTP	0
T_REC_HLD	72
T_REC_XHO	0
T_REC_STR	42
T_REC_BST	1
T_REC_XST	0
T_REC_TTP	0
T_REC_THO	0
T_REC_SLD	43
T_REC_ALL	613
T_NUM_TAP	490
T_NUM_BRK	8
T_NUM_HLD	72
T_NUM_SLD	43
T_NUM_ALL	613
T_JUDGE_TAP	498
T_JUDGE_HLD	177
T_JUDGE_SLD	43
T_JUDGE_ALL	718
TTM_EACHPAIRS	117
TTM_SCR_TAP	245000
TTM_SCR_BRK	20800
TTM_SCR_HLD	72000
TTM_SCR_SLD	64500
TTM_SCR_ALL	402300
TTM_SCR_S	389500
TTM_SCR_SS	401500
TTM_RAT_ACV	10019

