VERSION	0.00.00	1.03.00
FES_MODE	0
BPM_DEF	195.000	195.000	195.000	195.000
MET_DEF	4	4
RESOLUTION	384
CLK_DEF	384
COMPATIBLE_CODE	MA2

BPM	0	0	195.000
MET	0	0	4	4

HLD	2	0	2	384
HLD	3	0	3	384
HLD	4	0	4	384
TAP	5	0	5
TAP	5	192	4
TAP	5	192	5
HLD	6	0	2	192
HLD	6	0	3	192
HLD	7	0	4	192
HLD	7	0	5	192
TAP	8	0	6
TAP	8	0	7
TAP	8	192	0
TAP	8	192	1
TAP	9	0	7
TAP	9	96	0
TAP	9	192	1
TAP	9	192	6
TAP	10	0	2
TAP	10	96	2
TAP	10	192	3
TAP	11	0	5
TAP	11	96	5
TAP	11	192	4
TAP	12	0	2
TAP	12	96	2
TAP	12	192	3
TAP	13	0	4
TAP	13	96	3
TAP	13	192	2
TAP	13	192	5
TAP	14	0	1
TAP	14	96	1
TAP	14	192	0
TAP	15	0	6
TAP	15	96	6
TAP	15	192	7
TAP	16	0	0
TAP	16	96	0
TAP	16	192	7
TAP	17	0	7
TAP	17	96	0
TAP	17	192	1
TAP	17	192	6
TAP	18	0	2
TAP	18	96	2
TAP	18	192	2
TAP	18	192	3
TAP	19	0	5
TAP	19	96	5
TAP	19	192	4
TAP	19	192	5
TAP	20	0	2
TAP	20	96	2
TAP	20	192	3
TAP	20	288	3
TAP	21	0	4
TAP	21	96	4
TAP	21	192	5
STR	21	288	5
SCR	21	288	5	96	576	2
TAP	24	0	4
TAP	24	0	6
TAP	24	192	1
TAP	24	192	3
TAP	25	0	3
TAP	25	96	4
TAP	25	192	2
TAP	25	192	5
HLD	26	0	2	192
TAP	26	96	3
TAP	26	192	3
HLD	27	0	5	192
TAP	27	96	4
TAP	27	192	4
HLD	28	0	3	192
TAP	28	96	4
TAP	28	192	4
TAP	29	0	4
TAP	29	96	3
TAP	29	192	2
TAP	29	192	5
HLD	30	0	5	192
TAP	30	96	4
TAP	30	192	4
HLD	31	0	2	192
TAP	31	96	3
TAP	31	192	3
TAP	32	0	5
TAP	32	96	5
TAP	32	192	4
STR	32	288	4
SI_	32	288	4	96	192	0
HLD	34	0	1	192
TAP	34	96	0
TAP	34	192	0
HLD	35	0	6	192
TAP	35	96	7
TAP	35	192	7
HLD	36	0	0	192
TAP	36	96	7
TAP	36	192	7
TAP	37	0	7
TAP	37	96	0
TAP	37	192	1
TAP	37	192	6
HLD	38	0	6	192
TAP	38	96	7
TAP	38	192	7
HLD	39	0	1	192
TAP	39	96	0
TAP	39	192	0
TAP	40	0	6
TAP	40	0	7
TAP	40	192	0
TAP	40	192	1
TAP	41	0	0
TAP	41	0	7
TAP	41	96	0
TAP	41	96	7
BRK	41	192	1
BRK	41	192	6
TAP	42	0	2
TAP	42	96	3
TAP	42	192	2
TAP	42	288	1
TAP	42	288	4
TAP	43	0	5
TAP	43	96	4
TAP	43	192	3
TAP	43	192	6
TAP	44	0	6
TAP	44	96	6
TAP	44	96	7
TAP	44	192	1
TAP	44	288	0
TAP	44	288	1
TAP	45	0	7
TAP	45	96	0
TAP	45	96	7
TAP	45	192	1
TAP	45	192	6
TAP	46	0	5
TAP	46	96	4
TAP	46	192	5
TAP	46	288	3
TAP	46	288	6
TAP	47	0	2
TAP	47	96	3
TAP	47	192	1
TAP	47	192	4
TAP	48	0	2
TAP	48	0	3
TAP	48	96	1
TAP	48	192	0
STR	48	288	0
SI_	48	288	0	96	192	3
STR	48	288	7
SI_	48	288	7	96	192	4
TAP	50	0	5
TAP	50	96	5
TAP	50	192	4
TAP	50	192	6
TAP	50	288	4
TAP	50	288	6
TAP	51	0	7
TAP	51	96	0
TAP	51	192	1
TAP	51	192	6
TAP	52	0	2
TAP	52	96	3
TAP	52	192	4
TAP	52	192	5
TAP	52	288	4
TAP	52	288	5
TAP	53	0	3
TAP	53	96	2
TAP	53	192	1
TAP	53	192	4
TAP	54	0	2
TAP	54	96	2
TAP	54	192	1
TAP	54	192	3
TAP	54	288	1
TAP	54	288	3
TAP	55	0	0
TAP	55	96	7
TAP	55	192	1
TAP	55	192	6
TAP	56	0	4
TAP	56	0	5
TAP	56	96	4
TAP	56	96	5
TAP	56	192	2
TAP	56	192	3
STR	56	288	2
SCL	56	288	2	96	240	5
TAP	56	288	3
HLD	58	0	4	192
HLD	58	192	3	192
TAP	59	0	5
TAP	59	96	5
TAP	59	192	4
TAP	59	192	5
HLD	60	0	3	192
HLD	60	192	4	192
TAP	61	0	2
TAP	61	96	2
TAP	61	192	2
TAP	61	192	3
HLD	62	0	7	192
HLD	62	192	0	192
TAP	63	0	6
TAP	63	96	6
TAP	63	192	6
TAP	63	192	7
TAP	64	0	0
TAP	64	96	0
TAP	64	192	7
TAP	64	288	7
TAP	65	0	0
TAP	65	0	7
TAP	65	96	0
TAP	65	96	7
TAP	65	192	1
TAP	65	192	6
HLD	66	0	4	192
HLD	66	192	5	192
TAP	67	0	6
TAP	67	96	6
TAP	67	192	5
TAP	67	192	7
HLD	68	0	3	192
HLD	68	192	2	192
TAP	69	0	1
TAP	69	96	1
TAP	69	192	0
TAP	69	192	2
HLD	70	0	4	96
HLD	70	0	6	96
HLD	70	192	1	96
HLD	70	192	3	96
TAP	71	0	4
TAP	71	0	5
TAP	71	96	4
TAP	71	96	5
TAP	71	192	3
TAP	71	192	6
TAP	72	0	3
TAP	72	0	4
TAP	72	96	3
TAP	72	96	4
TAP	72	192	2
TAP	72	192	5
TAP	72	288	2
TAP	72	288	5
TAP	73	0	1
TAP	73	0	6
TAP	73	96	1
TAP	73	96	6
TAP	73	192	0
TAP	73	192	7
STR	74	0	0
SXL	74	0	0	96	336	2
STR	74	0	7
SXR	74	0	7	96	336	5
BRK	75	192	0
BRK	75	192	7
TAP	76	0	1
TAP	76	96	0
TAP	76	192	2
TAP	76	192	7
TAP	76	288	2
TAP	76	288	7
TAP	77	0	6
TAP	77	96	6
TAP	77	192	5
TAP	77	192	7
TAP	78	0	4
TAP	78	96	5
TAP	78	192	6
TAP	78	288	7
TAP	79	0	0
TAP	79	0	1
TAP	79	96	0
TAP	79	96	1
TAP	79	192	2
TAP	79	192	7
TAP	80	0	2
TAP	80	0	3
TAP	80	96	2
TAP	80	96	3
TAP	80	192	4
TAP	80	192	5
TAP	80	288	4
STR	80	288	5
SCR	80	288	5	96	240	2
TAP	82	0	5
TAP	82	96	4
TAP	82	192	3
TAP	82	192	6
TAP	82	288	3
TAP	82	288	6
TAP	83	0	2
TAP	83	96	2
TAP	83	192	1
TAP	83	192	3
TAP	84	0	7
TAP	84	96	6
TAP	84	192	5
TAP	84	288	4
TAP	85	0	2
TAP	85	0	3
TAP	85	96	1
TAP	85	96	4
TAP	85	192	0
TAP	85	192	5
TAP	86	0	0
TAP	86	0	1
TAP	86	96	2
TAP	86	96	7
TAP	86	192	3
TAP	86	192	6
TAP	87	0	6
TAP	87	0	7
TAP	87	96	0
TAP	87	96	5
TAP	87	192	1
TAP	87	192	4
TAP	88	0	2
TAP	88	0	3
TAP	88	96	1
TAP	88	96	4
TAP	88	192	4
TAP	88	192	5
TAP	88	288	3
STR	88	288	6
SCR	88	288	6	96	240	3
HLD	90	0	5	96
TAP	90	96	4
TAP	90	192	3
TAP	90	192	6
HLD	91	0	2	96
TAP	91	96	3
TAP	91	192	1
TAP	91	192	4
HLD	92	0	6	96
TAP	92	96	7
TAP	92	192	0
TAP	92	192	5
HLD	93	0	0	96
TAP	93	96	7
TAP	93	192	1
TAP	93	192	6
TAP	94	0	5
TAP	94	96	4
TAP	94	192	2
TAP	94	192	3
TAP	94	288	2
TAP	94	288	3
TAP	95	0	1
TAP	95	96	2
TAP	95	192	3
TAP	95	192	4
HLD	96	0	4	96
HLD	96	0	6	96
HLD	96	192	1	96
HLD	96	192	3	96
TAP	97	0	0
TAP	97	0	7
TAP	97	96	1
TAP	97	96	6
TAP	97	192	2
TAP	97	192	5
TAP	98	0	4
TAP	98	0	5
TAP	98	96	4
TAP	98	96	5
TAP	98	192	3
TAP	98	192	6
TAP	98	288	3
TAP	98	288	6
TAP	99	0	2
TAP	99	0	7
TAP	99	96	2
TAP	99	96	7
TAP	99	192	0
TAP	99	192	1
HLD	100	0	6	96
HLD	100	0	7	96
HLD	100	192	0	96
HLD	100	192	1	96
HLD	101	0	0	96
HLD	101	0	7	96
BRK	101	192	1
BRK	101	192	6
TAP	102	0	4
TAP	102	0	5
TAP	102	96	2
TAP	102	96	3
TAP	102	192	0
TAP	102	192	1
TAP	102	288	2
TAP	102	288	7
TAP	103	0	0
TAP	103	0	1
TAP	103	96	2
TAP	103	96	3
TAP	103	192	4
TAP	103	192	5
TAP	103	288	3
TAP	103	288	6
TAP	104	0	4
TAP	104	0	5
TAP	104	96	6
TAP	104	96	7
TAP	104	192	0
TAP	104	192	1
TAP	104	288	2
TAP	104	288	7
TAP	105	0	1
TAP	105	0	6
BRK	105	96	3
BRK	105	96	4

T_REC_TAP	353
T_REC_BRK	8
T_REC_XTP	0
T_REC_HLD	45
T_REC_XHO	0
T_REC_STR	9
T_REC_BST	0
T_REC_XST	0
T_REC_TTP	0
T_REC_THO	0
T_REC_SLD	9
T_REC_ALL	424
T_NUM_TAP	362
T_NUM_BRK	8
T_NUM_HLD	45
T_NUM_SLD	9
T_NUM_ALL	424
T_JUDGE_TAP	370
T_JUDGE_HLD	156
T_JUDGE_SLD	9
T_JUDGE_ALL	535
TTM_EACHPAIRS	128
TTM_SCR_TAP	181000
TTM_SCR_BRK	20800
TTM_SCR_HLD	45000
TTM_SCR_SLD	13500
TTM_SCR_ALL	260300
TTM_SCR_S	251750
TTM_SCR_SS	259500
TTM_RAT_ACV	10030

