VERSION	0.00.00	1.03.00
FES_MODE	0
BPM_DEF	195.000	195.000	195.000	195.000
MET_DEF	4	4
RESOLUTION	384
CLK_DEF	384
COMPATIBLE_CODE	MA2

BPM	0	0	195.000
MET	0	0	4	4
MET	50	0	4	4
MET	51	192	4	4
MET	52	0	4	4
MET	53	0	4	4

TAP	2	0	0
TAP	3	0	0
TAP	4	0	7
TAP	5	0	7
TAP	6	0	0
TAP	6	192	0
TAP	7	0	0
TAP	8	0	7
TAP	8	192	7
TAP	9	0	7
TAP	10	0	0
TAP	10	192	0
TAP	11	0	1
TAP	11	192	1
TAP	12	0	2
TAP	12	192	2
TAP	13	0	3
TAP	13	0	4
TAP	14	0	4
TAP	14	192	4
TAP	15	0	5
TAP	15	192	5
TAP	16	0	6
TAP	16	192	6
TAP	17	0	0
TAP	17	0	7
TAP	18	0	7
TAP	18	192	7
TAP	19	0	6
TAP	19	192	6
TAP	20	0	5
TAP	20	192	5
TAP	21	0	4
TAP	21	192	4
HLD	22	0	3	384
TAP	24	0	4
TAP	24	192	4
BRK	25	0	4
TAP	26	0	3
TAP	26	96	3
TAP	26	192	3
TAP	27	0	3
TAP	27	96	3
TAP	27	192	3
TAP	28	0	2
TAP	28	96	2
TAP	28	192	2
TAP	29	0	2
TAP	29	96	2
TAP	29	192	2
TAP	30	0	1
TAP	30	96	1
TAP	30	192	1
TAP	31	0	1
TAP	31	96	1
TAP	31	192	1
TAP	32	0	0
TAP	32	96	0
TAP	32	192	0
HLD	33	0	0	192
TAP	34	0	7
TAP	34	96	7
TAP	34	192	7
TAP	35	0	7
TAP	35	96	7
TAP	35	192	7
TAP	36	0	6
TAP	36	96	6
TAP	36	192	6
TAP	37	0	6
TAP	37	96	6
TAP	37	192	6
TAP	38	0	5
TAP	38	96	5
TAP	38	192	5
TAP	39	0	5
TAP	39	96	5
TAP	39	192	5
TAP	40	0	4
TAP	40	96	4
TAP	40	192	4
HLD	41	0	4	192
TAP	42	0	3
TAP	42	0	4
TAP	42	192	3
TAP	42	192	4
TAP	43	0	3
TAP	43	96	4
TAP	43	192	3
TAP	44	0	4
TAP	44	0	5
TAP	44	96	4
TAP	44	96	5
TAP	44	192	4
TAP	44	192	5
TAP	45	0	2
TAP	45	0	3
TAP	45	96	2
TAP	45	96	3
TAP	45	192	2
TAP	45	192	3
TAP	46	0	3
TAP	46	0	4
TAP	46	192	3
TAP	46	192	4
TAP	47	0	4
TAP	47	96	3
TAP	47	192	4
TAP	48	0	2
TAP	48	96	2
TAP	48	192	2
HLD	49	0	1	192
TAP	50	0	0
TAP	50	0	7
TAP	50	192	0
TAP	50	192	7
TAP	51	0	0
TAP	51	96	7
TAP	51	192	0
TAP	52	0	6
TAP	52	0	7
TAP	52	96	6
TAP	52	96	7
TAP	52	192	6
TAP	52	192	7
TAP	53	0	0
TAP	53	0	1
TAP	53	96	0
TAP	53	96	1
TAP	53	192	0
TAP	53	192	1
TAP	54	0	0
TAP	54	0	7
TAP	54	192	0
TAP	54	192	7
TAP	55	0	7
TAP	55	96	0
TAP	55	192	7
TAP	56	0	0
TAP	56	96	7
TAP	56	192	0
HLD	57	0	0	192
HLD	57	0	7	192
STR	58	0	7
SI_	58	0	7	96	288	3
STR	60	0	0
SI_	60	0	0	96	288	4
STR	62	0	6
SI_	62	0	6	96	288	3
TAP	64	0	1
TAP	64	192	2
TAP	65	0	3
TAP	65	0	4
TAP	65	96	3
TAP	65	96	4
TAP	65	192	3
TAP	65	192	4
STR	66	0	3
SI_	66	0	3	96	288	0
STR	68	0	7
SI_	68	0	7	96	288	4
STR	70	0	3
SI_	70	0	3	96	288	7
TAP	72	0	0
TAP	72	192	0
TAP	73	0	6
TAP	73	0	7
TAP	73	96	6
TAP	73	96	7
TAP	73	192	6
TAP	73	192	7
TAP	74	0	0
TAP	74	192	0
TAP	75	0	0
TAP	75	96	7
BRK	75	192	0
TAP	76	0	0
TAP	76	96	0
TAP	76	192	1
TAP	77	0	2
TAP	77	96	2
TAP	77	192	2
TAP	77	192	3
TAP	78	0	4
TAP	78	192	4
TAP	79	0	4
TAP	79	96	3
TAP	79	192	4
TAP	80	0	5
TAP	80	96	5
TAP	80	192	6
HLD	81	0	7	192
TAP	82	0	7
TAP	82	192	7
TAP	83	0	7
TAP	83	96	0
TAP	83	192	7
TAP	84	0	7
TAP	84	96	7
TAP	84	192	6
TAP	85	0	5
TAP	85	96	5
TAP	85	192	4
TAP	85	192	5
TAP	86	0	3
TAP	86	192	3
TAP	87	0	3
TAP	87	96	4
TAP	87	192	3
TAP	88	0	2
TAP	88	96	2
TAP	88	192	1
HLD	89	0	0	192
TAP	90	0	7
TAP	90	96	7
TAP	90	192	6
TAP	90	288	6
TAP	91	0	5
TAP	91	96	5
TAP	91	192	3
TAP	91	192	4
TAP	92	0	3
TAP	92	96	3
TAP	92	192	2
TAP	92	288	2
TAP	93	0	1
TAP	93	96	1
TAP	93	192	0
TAP	93	192	7
TAP	94	0	0
TAP	94	96	0
TAP	94	192	7
TAP	94	288	7
TAP	95	0	0
TAP	95	96	7
TAP	95	192	0
TAP	96	0	6
TAP	96	96	6
TAP	96	192	6
TAP	96	192	7
TAP	97	0	1
TAP	97	96	1
TAP	97	192	0
TAP	97	192	1
STR	98	0	0
SI_	98	0	0	96	288	4
STR	100	0	7
SI_	100	0	7	96	288	3
TAP	102	0	0
TAP	102	96	0
TAP	102	192	1
TAP	102	288	1
TAP	103	0	2
TAP	103	96	2
TAP	103	192	3
TAP	103	288	3
TAP	104	0	4
TAP	104	96	4
TAP	104	192	5
TAP	104	288	5
TAP	105	0	6
BRK	105	96	6

T_REC_TAP	235
T_REC_BRK	3
T_REC_XTP	0
T_REC_HLD	8
T_REC_XHO	0
T_REC_STR	8
T_REC_BST	0
T_REC_XST	0
T_REC_TTP	0
T_REC_THO	0
T_REC_SLD	8
T_REC_ALL	262
T_NUM_TAP	243
T_NUM_BRK	3
T_NUM_HLD	8
T_NUM_SLD	8
T_NUM_ALL	262
T_JUDGE_TAP	246
T_JUDGE_HLD	36
T_JUDGE_SLD	8
T_JUDGE_ALL	290
TTM_EACHPAIRS	35
TTM_SCR_TAP	121500
TTM_SCR_BRK	7800
TTM_SCR_HLD	8000
TTM_SCR_SLD	12000
TTM_SCR_ALL	149300
TTM_SCR_S	144550
TTM_SCR_SS	149000
TTM_RAT_ACV	10020

