VERSION	0.00.00	1.03.00
FES_MODE	0
BPM_DEF	160.000	160.000	160.000	160.000
MET_DEF	4	4
RESOLUTION	384
CLK_DEF	384
COMPATIBLE_CODE	MA2

BPM	0	0	160.000
MET	0	0	4	4

TAP	1	0	3
TAP	1	0	4
TAP	1	96	2
TAP	1	192	2
TAP	1	288	2
TAP	2	0	3
TAP	2	0	4
TAP	2	96	5
TAP	2	192	3
TAP	2	192	4
TAP	2	288	2
TAP	3	0	3
TAP	3	0	4
TAP	3	96	5
TAP	3	192	5
TAP	3	288	5
TAP	4	0	3
TAP	4	0	4
TAP	4	96	2
TAP	4	192	3
TAP	4	192	4
BRK	4	288	1
BRK	4	288	6
TAP	5	0	3
TAP	5	0	7
TAP	5	96	4
TAP	5	96	5
TAP	5	192	0
TAP	5	192	4
TAP	5	288	2
TAP	5	288	3
TAP	6	0	3
TAP	6	0	7
TAP	6	96	4
TAP	6	96	5
TAP	6	192	0
TAP	6	192	4
TAP	6	288	2
TAP	6	288	3
TAP	7	0	5
TAP	7	0	6
TAP	7	96	3
TAP	7	96	4
TAP	7	192	1
TAP	7	192	2
TAP	7	288	0
TAP	7	288	7
HLD	8	0	1	192
HLD	8	0	6	192
STR	8	288	0
SI_	8	288	0	96	48	3
TAP	8	288	7
STR	9	0	3
SI_	9	0	3	96	48	0
STR	9	96	0
SI_	9	96	0	96	48	3
STR	9	192	3
SI_	9	192	3	96	48	0
STR	9	288	0
SI_	9	288	0	96	48	3
STR	10	0	3
SI_	10	0	3	96	48	0
STR	10	96	0
SI_	10	96	0	96	48	4
TAP	10	192	4
STR	10	288	7
SI_	10	288	7	96	48	4
STR	11	0	4
SI_	11	0	4	96	48	7
STR	11	96	7
SI_	11	96	7	96	48	4
STR	11	192	4
SI_	11	192	4	96	48	7
STR	11	288	7
SI_	11	288	7	96	48	4
STR	12	0	4
SI_	12	0	4	96	48	7
STR	12	96	7
SI_	12	96	7	96	48	3
TAP	12	192	3
STR	12	288	0
SI_	12	288	0	96	48	4
STR	13	0	4
SI_	13	0	4	96	48	0
STR	13	96	0
SI_	13	96	0	96	48	4
STR	13	192	4
SI_	13	192	4	96	48	0
STR	13	288	0
SI_	13	288	0	96	48	4
STR	14	0	4
SI_	14	0	4	96	48	1
SI_	14	0	4	96	48	7
STR	14	192	3
SI_	14	192	3	96	48	0
SI_	14	192	3	96	48	6
STR	15	0	7
SI_	15	0	7	96	48	3
STR	15	96	3
SI_	15	96	3	96	48	7
STR	15	192	7
SCL	15	192	7	96	48	4
SCR	15	192	7	96	48	2
STR	16	0	0
SI_	16	0	0	96	48	4
STR	16	96	4
SI_	16	96	4	96	48	0
HLD	16	192	7	96
BRK	16	288	0
STR	17	0	0
SCR	17	0	0	96	48	3
TAP	17	0	7
STR	17	96	3
SCL	17	96	3	96	48	0
STR	17	192	0
SI_	17	192	0	96	48	4
TAP	17	288	4
STR	18	0	7
SCL	18	0	7	96	48	4
STR	18	96	4
SCR	18	96	4	96	48	7
STR	18	192	7
SI_	18	192	7	96	48	3
TAP	18	288	3
STR	19	0	1
SCR	19	0	1	96	48	4
TAP	19	96	0
STR	19	192	6
SCL	19	192	6	96	48	3
TAP	19	288	7
STR	20	0	1
SCR	20	0	1	96	48	4
STR	20	96	6
SCL	20	96	6	96	48	3
STR	20	192	0
SI_	20	192	0	96	48	4
TAP	20	288	7
STR	21	0	6
SCL	21	0	6	96	48	3
STR	21	96	3
SCR	21	96	3	96	48	6
STR	21	192	6
SI_	21	192	6	96	48	2
TAP	21	288	2
STR	22	0	1
SCR	22	0	1	96	48	4
STR	22	96	4
SCL	22	96	4	96	48	1
STR	22	192	1
SI_	22	192	1	96	48	5
TAP	22	288	5
STR	23	0	2
SI_	23	0	2	96	48	7
STR	23	0	6
SI_	23	0	6	96	48	3
STR	23	192	1
SI_	23	192	1	96	48	4
STR	23	192	5
SI_	23	192	5	96	48	0
HLD	24	0	2	96
HLD	24	0	6	96
STR	24	192	0
SI_	24	192	0	96	48	4
STR	24	192	7
SI_	24	192	7	96	48	3
BRK	24	288	0
BRK	24	288	7
STR	25	0	2
SCL	25	0	2	96	192	5
HLD	25	0	6	288
HLD	26	0	1	288
STR	26	0	5
SCR	26	0	5	96	192	3
STR	27	0	2
SCL	27	0	2	96	192	3
HLD	27	0	6	288
TAP	28	0	4
TAP	28	32	4
TAP	28	64	4
TAP	28	96	3
TAP	28	128	3
TAP	28	160	3
STR	28	192	5
SCL	28	192	5	96	48	2
TAP	29	0	0
TAP	29	32	0
TAP	29	64	7
TAP	29	96	1
TAP	29	128	1
TAP	29	160	0
STR	29	192	2
SI_	29	192	2	96	48	6
TAP	30	0	7
TAP	30	32	7
TAP	30	64	0
TAP	30	96	6
TAP	30	128	6
TAP	30	160	7
STR	30	192	5
SI_	30	192	5	96	48	1
TAP	31	0	3
TAP	31	32	3
TAP	31	64	4
TAP	31	96	2
TAP	31	128	2
TAP	31	160	3
STR	31	192	1
SI_	31	192	1	96	48	5
TAP	32	0	4
TAP	32	32	4
TAP	32	64	3
TAP	32	96	5
TAP	32	128	5
TAP	32	160	4
TAP	32	192	6
TAP	32	224	6
TAP	32	256	5
STR	32	288	7
SCL	32	288	7	96	192	2
HLD	33	0	3	288
STR	33	288	0
SCR	33	288	0	96	192	6
HLD	34	0	4	288
STR	34	288	7
SCL	34	288	7	96	192	0
HLD	35	0	3	288
STR	35	288	0
SI_	35	288	0	96	48	3
HLD	36	0	5	96
STR	36	96	7
SI_	36	96	7	96	48	4
HLD	36	192	2	96
TAP	36	288	0
TAP	37	0	2
TAP	37	32	3
TAP	37	64	2
TAP	37	96	4
TAP	37	128	3
TAP	37	160	4
STR	37	192	2
SI_	37	192	2	96	48	7
TAP	37	224	3
TAP	37	256	2
TAP	38	0	5
TAP	38	32	4
TAP	38	64	5
TAP	38	96	3
TAP	38	128	4
TAP	38	160	3
STR	38	192	5
SI_	38	192	5	96	48	0
TAP	38	224	4
TAP	38	256	5
TAP	39	0	1
TAP	39	32	0
TAP	39	64	1
TAP	39	96	6
TAP	39	128	7
TAP	39	160	6
TAP	39	192	2
TAP	39	224	3
TAP	39	256	2
TAP	39	288	5
TAP	39	320	4
TAP	39	352	5
TAP	40	0	0
TAP	40	32	7
TAP	40	64	1
TAP	40	96	6
TAP	40	128	2
TAP	40	160	5
STR	40	192	3
SI_	40	192	3	96	48	0
STR	40	192	4
SI_	40	192	4	96	48	7
BRK	41	0	2
HLD	41	0	5	384
TAP	41	192	4
TAP	41	256	3
TAP	41	320	2
HLD	42	0	1	384
TAP	42	192	3
TAP	42	256	4
TAP	42	320	5
HLD	43	0	6	384
TAP	43	192	7
TAP	43	256	0
TAP	43	320	1
STR	44	0	2
SCR	44	0	2	96	192	5
HLD	45	0	1	384
TAP	45	0	6
TAP	45	192	3
TAP	45	256	4
TAP	45	320	5
HLD	46	0	6	384
TAP	46	192	5
TAP	46	256	4
TAP	46	320	3
STR	47	0	2
SCR	47	0	2	96	288	0
TAP	48	192	2
TAP	48	192	5
TAP	48	288	1
TAP	48	288	6
TAP	49	0	0
HLD	49	0	7	192
HLD	49	192	6	64
HLD	49	256	5	64
TAP	49	320	4
HLD	50	0	0	192
TAP	50	0	7
HLD	50	192	1	64
HLD	50	256	2	64
TAP	50	320	3
TAP	51	0	2
HLD	51	0	5	128
HLD	51	128	4	64
HLD	51	192	3	64
HLD	51	256	2	64
HLD	51	320	1	64
HLD	52	0	0	64
HLD	52	64	7	64
HLD	52	128	6	64
STR	52	192	5
SUR	52	192	5	96	96	2
HLD	53	0	0	192
HLD	53	192	1	64
HLD	53	256	2	64
TAP	53	320	3
TAP	54	0	0
TAP	54	0	7
TAP	54	144	6
TAP	54	208	7
TAP	54	272	0
TAP	54	336	1
TAP	55	16	0
STR	55	16	7
SI_	55	16	7	96	272	3
SSR	55	16	7	96	272	3
TAP	56	96	0
TAP	56	96	2
TAP	56	192	1
TAP	56	192	3
TAP	56	288	4
TAP	56	288	6
TAP	57	0	5
STR	57	0	7
SI_	57	0	7	96	24	2
TAP	57	64	7
STR	57	96	3
SI_	57	96	3	96	24	6
TAP	57	160	3
STR	57	192	7
SI_	57	192	7	96	24	2
TAP	57	256	7
STR	57	288	3
SI_	57	288	3	96	24	6
TAP	57	352	3
STR	58	0	1
SI_	58	0	1	96	24	4
TAP	58	64	1
STR	58	96	5
SI_	58	96	5	96	24	0
TAP	58	160	5
STR	58	192	1
SI_	58	192	1	96	24	4
TAP	58	256	1
TAP	58	288	0
TAP	58	352	0
BRK	59	0	1
BRK	59	0	7
TAP	59	64	5
TAP	59	96	4
TAP	59	96	5
TAP	59	160	2
TAP	59	192	2
TAP	59	192	3
TAP	59	256	0
TAP	59	256	7
HLD	59	288	0	64
TAP	59	288	7
TAP	59	352	3
TAP	60	0	1
TAP	60	32	4
TAP	60	64	2
TAP	60	96	5
TAP	60	128	3
TAP	60	160	6
STR	60	192	4
SF_	60	192	4	96	48	0
BRK	60	288	4
STR	61	0	0
SI_	61	0	0	96	24	5
TAP	61	0	2
TAP	61	64	0
STR	61	96	4
SI_	61	96	4	96	24	1
TAP	61	160	4
STR	61	192	0
SI_	61	192	0	96	24	5
TAP	61	256	0
STR	61	288	4
SI_	61	288	4	96	24	1
TAP	61	352	4
STR	62	0	6
SI_	62	0	6	96	24	3
TAP	62	64	6
STR	62	96	2
SI_	62	96	2	96	24	7
TAP	62	160	2
STR	62	192	6
SI_	62	192	6	96	24	3
TAP	62	256	6
TAP	62	288	7
TAP	62	352	7
BRK	63	0	0
BRK	63	0	6
TAP	63	64	2
TAP	63	96	1
TAP	63	96	3
TAP	63	160	5
TAP	63	192	4
TAP	63	192	6
TAP	63	256	0
TAP	63	256	7
TAP	63	288	1
HLD	63	288	6	64
TAP	63	352	4
TAP	64	0	6
TAP	64	32	4
TAP	64	64	6
TAP	64	96	1
TAP	64	128	3
TAP	64	160	1
STR	64	192	2
SI_	64	192	2	96	48	7
STR	64	192	5
SI_	64	192	5	96	48	0
BRK	64	288	2
BRK	64	288	5
STR	65	0	1
SI_	65	0	1	96	24	4
TAP	65	0	6
TAP	65	64	1
STR	65	96	5
SI_	65	96	5	96	24	0
TAP	65	160	5
STR	65	192	2
SI_	65	192	2	96	24	6
TAP	65	256	2
STR	65	288	4
SI_	65	288	4	96	24	0
TAP	65	352	4
STR	66	0	1
SI_	66	0	1	96	24	3
TAP	66	64	1
STR	66	96	5
SI_	66	96	5	96	24	7
TAP	66	160	5
STR	66	192	2
SI_	66	192	2	96	24	6
TAP	66	256	2
STR	66	288	7
SI_	66	288	7	96	24	3
TAP	66	352	7
STR	67	0	1
SI_	67	0	1	96	24	4
TAP	67	64	1
STR	67	96	5
SI_	67	96	5	96	24	1
TAP	67	160	5
STR	67	192	3
SI_	67	192	3	96	24	7
TAP	67	256	3
STR	67	288	6
SI_	67	288	6	96	24	3
TAP	67	352	6
TAP	68	0	1
TAP	68	32	1
TAP	68	64	1
BRK	68	96	0
BRK	68	96	2
TAP	68	192	6
TAP	68	224	6
TAP	68	256	6
BRK	68	288	5
BRK	68	288	7
TAP	69	0	1
STR	69	0	6
SI_	69	0	6	96	24	2
TAP	69	64	6
STR	69	96	7
SI_	69	96	7	96	24	3
TAP	69	160	7
STR	69	192	0
SI_	69	192	0	96	24	4
TAP	69	256	0
STR	69	288	1
SI_	69	288	1	96	24	5
TAP	69	352	1
STR	70	0	0
SI_	70	0	0	96	24	4
TAP	70	64	0
STR	70	96	7
SI_	70	96	7	96	24	3
TAP	70	160	7
STR	70	192	6
SI_	70	192	6	96	24	2
TAP	70	256	6
STR	70	288	7
SI_	70	288	7	96	24	3
TAP	70	352	7
STR	71	0	0
SF_	71	0	0	96	48	4
BRK	71	96	0
STR	71	192	7
SF_	71	192	7	96	48	3
BRK	71	288	7
STR	72	0	1
SXR	72	0	1	96	192	3
STR	72	0	5
SXR	72	0	5	96	192	7
STR	73	0	0
SUR	73	0	0	96	144	5
STR	73	0	1
SCR	73	0	1	96	144	4
STR	74	0	6
SCL	74	0	6	96	144	3
STR	74	0	7
SUL	74	0	7	96	144	2
STR	75	0	0
SCR	75	0	0	96	288	3
STR	75	0	7
SCL	75	0	7	96	288	4
STR	76	192	3
SI_	76	192	3	96	48	0
STR	76	192	4
SI_	76	192	4	96	48	7
TAP	76	288	3
TAP	76	288	4
BRK	77	0	1
BRK	77	0	6
TAP	77	96	1
TAP	77	96	3
TAP	77	144	2
TAP	77	192	4
TAP	77	192	6
TAP	77	240	5
TAP	77	288	1
TAP	77	288	3
TAP	77	336	2
TAP	78	0	5
TAP	78	24	4
TAP	78	48	5
TAP	78	96	6
TAP	78	144	0
TAP	78	144	7
TAP	78	192	2
TAP	78	216	3
TAP	78	240	2
TAP	78	288	1
TAP	78	336	0
TAP	78	336	7
BRK	79	0	1
BRK	79	0	6
TAP	79	96	4
TAP	79	96	6
TAP	79	144	5
TAP	79	192	1
TAP	79	192	3
TAP	79	240	2
TAP	79	288	4
TAP	79	288	6
TAP	79	336	5
TAP	80	0	2
TAP	80	24	3
TAP	80	48	2
TAP	80	96	5
TAP	80	120	4
TAP	80	144	5
TAP	80	192	2
TAP	80	192	3
TAP	80	240	0
TAP	80	288	4
TAP	80	288	5
TAP	80	336	7
HLD	81	0	1	72
BRK	81	0	6
TAP	81	72	3
TAP	81	96	2
TAP	81	144	6
TAP	81	144	7
TAP	81	192	0
HLD	81	192	5	72
TAP	81	264	4
TAP	81	288	5
TAP	81	336	0
TAP	81	336	1
TAP	82	0	2
TAP	82	0	7
TAP	82	48	5
TAP	82	72	4
TAP	82	96	5
TAP	82	144	3
TAP	82	144	6
BST	82	192	7
SI_	82	192	7	96	48	3
BST	82	240	1
SI_	82	240	1	96	48	5
BRK	82	288	7
BRK	82	336	1
HLD	83	0	6	72
TAP	83	72	4
TAP	83	96	5
TAP	83	144	0
TAP	83	144	1
HLD	83	192	2	72
TAP	83	192	7
TAP	83	264	3
TAP	83	288	2
TAP	83	336	6
TAP	83	336	7
TAP	84	0	0
TAP	84	0	5
TAP	84	48	2
TAP	84	72	3
TAP	84	96	2
TAP	84	144	1
TAP	84	144	4
BST	84	192	0
SI_	84	192	0	96	48	4
BST	84	240	6
SI_	84	240	6	96	48	2
BRK	84	288	0
BRK	84	336	6
HLD	85	0	1	72
TAP	85	72	0
TAP	85	96	1
TAP	85	144	1
TAP	85	192	2
TAP	85	192	3
TAP	85	240	7
TAP	85	288	4
TAP	85	288	5
TAP	85	336	0
TAP	86	0	1
TAP	86	0	3
TAP	86	48	2
TAP	86	96	4
TAP	86	96	6
TAP	86	144	5
TAP	86	192	0
TAP	86	192	3
TAP	86	240	2
TAP	86	288	4
TAP	86	288	7
TAP	86	336	5
TAP	87	0	1
HLD	87	0	6	72
TAP	87	72	7
TAP	87	96	6
TAP	87	144	6
TAP	87	192	4
TAP	87	192	5
TAP	87	240	0
TAP	87	288	2
TAP	87	288	3
TAP	87	336	7
TAP	88	0	3
TAP	88	0	4
TAP	88	48	3
TAP	88	48	4
HLD	88	96	2	48
HLD	88	96	5	48
TAP	88	192	1
TAP	88	192	6
TAP	88	240	0
TAP	88	264	7
STR	88	288	0
SUL	88	288	0	96	48	4
SUR	88	288	0	96	48	4
TAP	88	312	7
TAP	88	336	0
TAP	88	360	7
BRK	89	0	0

T_REC_TAP	361
T_REC_BRK	29
T_REC_XTP	0
T_REC_HLD	45
T_REC_XHO	0
T_REC_STR	119
T_REC_BST	4
T_REC_XST	0
T_REC_TTP	0
T_REC_THO	0
T_REC_SLD	128
T_REC_ALL	686
T_NUM_TAP	480
T_NUM_BRK	33
T_NUM_HLD	45
T_NUM_SLD	128
T_NUM_ALL	686
T_JUDGE_TAP	513
T_JUDGE_HLD	153
T_JUDGE_SLD	128
T_JUDGE_ALL	794
TTM_EACHPAIRS	103
TTM_SCR_TAP	240000
TTM_SCR_BRK	85800
TTM_SCR_HLD	45000
TTM_SCR_SLD	192000
TTM_SCR_ALL	562800
TTM_SCR_S	542750
TTM_SCR_SS	559500
TTM_RAT_ACV	10058

