VERSION	0.00.00	1.03.00
FES_MODE	0
BPM_DEF	160.000	160.000	160.000	160.000
MET_DEF	4	4
RESOLUTION	384
CLK_DEF	384
COMPATIBLE_CODE	MA2

BPM	0	0	160.000
MET	0	0	4	4

TAP	1	0	4
TAP	1	96	4
TAP	1	192	4
TAP	1	288	4
TAP	2	0	3
TAP	2	96	3
TAP	2	192	3
TAP	2	288	3
TAP	3	0	4
TAP	3	96	4
TAP	3	192	4
TAP	3	288	4
TAP	4	0	3
TAP	4	96	3
TAP	4	192	3
HLD	4	288	3	384
TAP	5	0	4
TAP	5	96	4
TAP	5	192	4
HLD	5	288	4	384
TAP	6	0	3
TAP	6	96	3
TAP	6	192	3
HLD	6	288	3	384
TAP	7	0	4
TAP	7	96	4
TAP	7	192	4
TAP	7	288	4
TAP	8	0	3
TAP	8	0	4
TAP	8	288	3
HLD	8	288	4	2976
TAP	9	0	0
TAP	9	96	0
TAP	9	192	3
TAP	9	288	3
TAP	10	0	6
STR	10	96	0
SI_	10	96	0	96	48	3
TAP	10	144	0
TAP	10	288	3
TAP	11	0	7
TAP	11	96	7
TAP	11	192	0
TAP	11	288	0
TAP	12	0	5
STR	12	96	0
SI_	12	96	0	96	48	3
TAP	12	144	0
TAP	12	288	3
TAP	13	0	0
STR	13	96	7
SI_	13	96	7	96	48	5
TAP	13	144	7
STR	13	288	0
SI_	13	288	0	96	48	2
TAP	13	336	0
TAP	14	96	3
STR	14	192	0
SI_	14	192	0	96	48	3
TAP	14	240	0
TAP	15	0	3
STR	15	96	3
SI_	15	96	3	96	48	0
TAP	15	144	3
TAP	15	288	0
STR	16	0	5
SI_	16	0	5	96	48	2
TAP	16	48	5
TAP	16	192	2
HLD	16	288	3	2880
BRK	16	288	7
TAP	17	0	4
TAP	17	96	4
STR	17	192	7
SI_	17	192	7	96	48	4
TAP	17	240	7
TAP	18	0	4
TAP	18	96	4
STR	18	192	7
SI_	18	192	7	96	48	2
TAP	18	240	7
TAP	19	0	2
TAP	19	96	7
TAP	19	192	5
TAP	19	288	0
TAP	20	0	2
TAP	20	96	7
TAP	20	192	5
TAP	20	288	6
TAP	21	0	4
TAP	21	96	4
STR	21	192	7
SI_	21	192	7	96	48	4
TAP	21	240	7
TAP	22	0	4
TAP	22	96	4
STR	22	192	7
SI_	22	192	7	96	48	2
TAP	22	240	7
STR	23	0	0
SCR	23	0	0	96	48	2
TAP	23	48	0
STR	23	192	7
SCL	23	192	7	96	48	5
TAP	23	240	7
TAP	24	0	0
TAP	24	96	4
TAP	24	192	3
TAP	24	192	4
STR	24	288	2
SXL	24	288	2	96	288	5
TAP	24	288	6
HLD	25	0	7	288
TAP	26	0	4
TAP	26	0	5
TAP	26	72	4
TAP	26	72	5
TAP	26	144	4
TAP	26	144	5
TAP	26	192	3
TAP	26	192	6
TAP	26	288	1
STR	26	288	5
SXR	26	288	5	96	288	2
HLD	27	0	0	288
TAP	28	0	2
TAP	28	0	3
TAP	28	72	2
TAP	28	72	3
TAP	28	144	2
TAP	28	144	3
TAP	28	192	1
TAP	28	192	4
TAP	28	288	2
STR	28	288	6
SXL	28	288	6	96	288	1
HLD	29	0	3	288
TAP	30	0	0
TAP	30	0	1
TAP	30	72	0
TAP	30	72	1
TAP	30	144	0
TAP	30	144	1
TAP	30	192	2
TAP	30	192	7
STR	30	288	1
SXR	30	288	1	96	288	6
TAP	30	288	5
HLD	31	0	4	288
TAP	32	0	6
TAP	32	0	7
TAP	32	72	6
TAP	32	72	7
TAP	32	144	6
TAP	32	144	7
TAP	32	192	0
TAP	32	192	5
STR	32	288	3
SUR	32	288	3	96	288	5
TAP	32	288	6
HLD	33	0	7	288
TAP	34	0	6
HLD	34	0	7	72
HLD	34	72	5	72
TAP	34	144	4
TAP	34	192	3
TAP	34	192	6
TAP	34	288	1
STR	34	288	4
SUL	34	288	4	96	288	2
HLD	35	0	0	288
HLD	36	0	0	72
TAP	36	0	1
HLD	36	72	2	72
TAP	36	144	3
TAP	36	192	1
TAP	36	192	4
TAP	36	288	2
STR	36	288	7
SUR	36	288	7	96	288	1
HLD	37	0	3	288
TAP	38	0	2
HLD	38	0	3	72
HLD	38	72	1	72
TAP	38	144	0
TAP	38	192	2
TAP	38	192	7
STR	38	288	0
SUL	38	288	0	96	288	6
TAP	38	288	5
HLD	39	0	4	288
STR	40	0	3
SCL	40	0	3	96	192	0
STR	40	0	4
SCR	40	0	4	96	192	7
HLD	41	0	1	576
TAP	41	0	4
STR	41	192	7
SCR	41	192	7	96	288	3
TAP	43	0	3
HLD	43	0	6	576
STR	43	192	0
SCL	43	192	0	96	288	4
HLD	45	0	2	576
TAP	45	0	7
STR	45	192	4
SCL	45	192	4	96	288	0
TAP	47	0	0
HLD	47	0	5	576
STR	47	192	3
SCR	47	192	3	96	288	7
STR	49	0	3
SCL	49	0	3	96	192	0
HLD	49	0	4	192
HLD	50	0	3	192
STR	50	0	4
SCR	50	0	4	96	192	7
STR	51	0	3
SCL	51	0	3	96	192	0
HLD	51	0	4	192
STR	52	0	7
SSR	52	0	7	96	240	3
STR	53	0	0
SV_	53	0	0	96	192	5
HLD	53	0	7	192
HLD	54	0	0	192
STR	54	0	7
SV_	54	0	7	96	192	2
STR	55	0	1
SXR	55	0	1	96	384	5
TAP	56	192	3
TAP	56	192	4
TAP	56	288	0
STR	56	288	1
SI_	56	288	1	96	48	4
STR	57	0	0
SI_	57	0	0	96	48	5
STR	57	96	1
SI_	57	96	1	96	48	4
STR	57	192	0
SI_	57	192	0	96	48	5
STR	57	288	1
SCR	57	288	1	96	48	4
STR	58	0	0
SCL	58	0	0	96	48	5
STR	58	96	1
SCR	58	96	1	96	48	4
TAP	58	192	0
TAP	58	288	1
TAP	58	288	7
TAP	59	0	0
TAP	59	64	0
TAP	59	96	7
TAP	59	160	7
TAP	59	192	0
TAP	59	256	0
TAP	59	288	1
TAP	59	352	1
TAP	60	0	2
TAP	60	64	2
TAP	60	96	3
TAP	60	160	3
TAP	60	192	4
TAP	60	288	0
STR	60	288	6
SI_	60	288	6	96	48	3
STR	61	0	7
SI_	61	0	7	96	48	2
STR	61	96	6
SI_	61	96	6	96	48	3
STR	61	192	7
SI_	61	192	7	96	48	2
STR	61	288	6
SCL	61	288	6	96	48	3
STR	62	0	7
SCR	62	0	7	96	48	2
STR	62	96	6
SCL	62	96	6	96	48	3
TAP	62	192	7
TAP	62	288	0
TAP	62	288	6
TAP	63	0	7
TAP	63	64	7
TAP	63	96	0
TAP	63	160	0
TAP	63	192	7
TAP	63	256	7
TAP	63	288	6
TAP	63	352	6
TAP	64	0	5
TAP	64	64	5
TAP	64	96	4
TAP	64	160	4
TAP	64	192	3
TAP	64	288	1
TAP	64	288	7
TAP	65	0	0
STR	65	0	6
SCL	65	0	6	96	48	3
STR	65	192	1
SCR	65	192	1	96	48	4
TAP	65	192	7
TAP	66	0	0
STR	66	0	6
SI_	66	0	6	96	48	2
STR	66	192	1
SI_	66	192	1	96	48	5
TAP	66	192	7
TAP	67	0	3
STR	67	0	5
SCR	67	0	5	96	48	0
TAP	67	192	2
TAP	67	288	3
TAP	67	288	5
TAP	68	0	2
TAP	68	32	2
TAP	68	64	3
TAP	68	96	1
TAP	68	96	4
TAP	68	192	5
TAP	68	224	5
TAP	68	256	4
TAP	68	288	3
TAP	68	288	6
STR	69	0	1
SCR	69	0	1	96	48	4
TAP	69	0	7
TAP	69	192	0
STR	69	192	6
SCL	69	192	6	96	48	3
STR	70	0	1
SUR	70	0	1	96	48	5
TAP	70	0	7
TAP	70	192	0
STR	70	192	6
SUL	70	192	6	96	48	2
STR	71	0	2
SCL	71	0	2	96	48	7
TAP	71	0	4
TAP	71	192	5
TAP	71	288	2
TAP	71	288	4
BRK	72	0	0
STR	72	288	5
SLL	72	288	5	96	192	0
HLD	73	0	2	192
STR	73	288	2
SLR	73	288	2	96	192	7
HLD	74	0	5	192
STR	74	288	5
SCR	74	288	5	96	384	4
HLD	75	0	1	384
TAP	76	192	3
TAP	76	192	4
BRK	76	288	1
BRK	76	288	6
TAP	77	0	0
HLD	77	0	1	96
HLD	77	96	2	96
HLD	77	192	3	96
TAP	77	288	4
HLD	78	0	6	96
TAP	78	0	7
HLD	78	96	5	96
HLD	78	192	4	96
TAP	78	288	3
TAP	79	0	4
HLD	79	0	5	96
HLD	79	96	6	96
HLD	79	192	7	96
TAP	79	288	0
HLD	80	0	3	192
HLD	80	0	4	192
TAP	80	288	2
TAP	80	288	5
TAP	81	0	0
TAP	81	0	1
TAP	81	96	3
TAP	81	192	6
TAP	81	192	7
TAP	81	288	4
TAP	82	0	0
TAP	82	0	1
TAP	82	96	3
STR	82	192	1
SI_	82	192	1	96	48	3
STR	82	192	6
SI_	82	192	6	96	48	3
TAP	83	0	6
TAP	83	0	7
TAP	83	96	4
TAP	83	192	0
TAP	83	192	1
TAP	83	288	3
TAP	84	0	6
TAP	84	0	7
TAP	84	96	4
STR	84	192	1
SI_	84	192	1	96	48	4
STR	84	192	6
SI_	84	192	6	96	48	4
TAP	85	0	2
HLD	85	0	5	96
HLD	85	96	7	96
HLD	85	192	0	96
TAP	85	288	2
HLD	86	0	2	96
TAP	86	0	5
HLD	86	96	0	96
HLD	86	192	7	96
TAP	86	288	5
TAP	87	0	0
STR	87	0	7
SI_	87	0	7	96	48	3
STR	87	192	0
SI_	87	192	0	96	48	4
TAP	87	192	7
TAP	88	0	0
TAP	88	0	7
TAP	88	48	0
TAP	88	48	7
TAP	88	96	1
TAP	88	96	6
TAP	88	192	2
TAP	88	192	6
STR	88	288	0
SCR	88	288	0	96	48	3
STR	88	288	4
SCR	88	288	4	96	48	7

T_REC_TAP	240
T_REC_BRK	4
T_REC_XTP	0
T_REC_HLD	48
T_REC_XHO	0
T_REC_STR	69
T_REC_BST	0
T_REC_XST	0
T_REC_TTP	0
T_REC_THO	0
T_REC_SLD	69
T_REC_ALL	430
T_NUM_TAP	309
T_NUM_BRK	4
T_NUM_HLD	48
T_NUM_SLD	69
T_NUM_ALL	430
T_JUDGE_TAP	313
T_JUDGE_HLD	328
T_JUDGE_SLD	69
T_JUDGE_ALL	710
TTM_EACHPAIRS	88
TTM_SCR_TAP	154500
TTM_SCR_BRK	10400
TTM_SCR_HLD	48000
TTM_SCR_SLD	103500
TTM_SCR_ALL	316400
TTM_SCR_S	306550
TTM_SCR_SS	316000
TTM_RAT_ACV	10012

