VERSION	0.00.00	1.03.00
FES_MODE	0
BPM_DEF	160.000	160.000	160.000	160.000
MET_DEF	4	4
RESOLUTION	384
CLK_DEF	384
COMPATIBLE_CODE	MA2

BPM	0	0	160.000
MET	0	0	4	4

TAP	1	0	3
TAP	1	96	3
TAP	1	192	3
TAP	1	288	3
TAP	2	0	3
TAP	2	96	3
TAP	2	192	3
TAP	2	192	4
TAP	3	0	4
TAP	3	96	4
TAP	3	192	4
TAP	3	288	4
TAP	4	0	4
TAP	4	96	4
TAP	4	192	3
TAP	4	192	4
TAP	5	0	5
TAP	5	96	5
TAP	5	192	4
TAP	6	0	2
TAP	6	96	2
TAP	6	192	3
TAP	7	0	4
TAP	7	96	4
TAP	7	192	3
TAP	7	288	3
HLD	8	0	3	192
HLD	8	0	4	192
TAP	9	0	2
TAP	9	96	2
TAP	9	192	3
TAP	9	288	3
TAP	10	0	4
TAP	10	96	4
TAP	10	192	3
TAP	10	192	5
TAP	11	0	5
TAP	11	96	5
TAP	11	192	4
TAP	11	288	4
TAP	12	0	3
TAP	12	96	3
TAP	12	192	2
TAP	12	192	4
TAP	13	0	1
TAP	13	96	1
TAP	13	192	0
TAP	13	192	1
TAP	14	0	6
TAP	14	96	6
TAP	14	192	6
TAP	14	192	7
TAP	15	0	7
TAP	15	96	0
TAP	15	192	1
TAP	15	192	6
HLD	16	0	0	96
HLD	16	0	7	96
BRK	16	192	1
BRK	16	192	6
TAP	17	0	2
TAP	17	96	3
TAP	17	192	2
TAP	17	192	3
TAP	18	0	5
TAP	18	96	4
TAP	18	192	4
TAP	18	192	5
TAP	19	0	2
TAP	19	96	2
TAP	19	192	3
TAP	19	288	3
TAP	20	0	2
TAP	20	96	3
TAP	20	192	1
TAP	20	192	4
TAP	21	0	6
TAP	21	96	7
TAP	21	192	6
TAP	21	192	7
TAP	22	0	1
TAP	22	96	0
TAP	22	192	0
TAP	22	192	1
HLD	23	0	2	96
HLD	23	0	3	96
HLD	23	192	4	96
HLD	23	192	5	96
HLD	24	0	3	96
HLD	24	0	4	96
TAP	24	192	3
TAP	24	192	4
BST	24	288	2
SLL	24	288	2	96	288	3
BST	24	288	5
SLR	24	288	5	96	288	4
HLD	26	0	5	192
TAP	26	192	4
HLD	27	0	2	192
TAP	27	192	3
HLD	28	0	5	192
TAP	28	192	4
TAP	29	0	3
TAP	29	0	4
TAP	29	96	3
TAP	29	96	4
TAP	29	192	2
TAP	29	192	5
TAP	30	0	1
TAP	30	96	1
TAP	30	192	0
TAP	30	192	1
TAP	31	0	6
TAP	31	96	6
TAP	31	192	6
TAP	31	192	7
TAP	32	0	0
TAP	32	96	7
TAP	32	192	0
STR	32	288	1
SLR	32	288	1	96	288	0
STR	32	288	6
SLL	32	288	6	96	288	7
HLD	34	0	1	192
TAP	34	192	0
HLD	35	0	6	192
TAP	35	192	7
HLD	36	0	1	192
TAP	36	192	0
TAP	37	0	0
TAP	37	0	7
TAP	37	96	0
TAP	37	96	7
TAP	37	192	1
TAP	37	192	6
TAP	38	0	2
TAP	38	96	2
TAP	38	192	1
TAP	38	192	3
TAP	39	0	5
TAP	39	96	5
TAP	39	192	4
TAP	39	192	6
TAP	40	0	4
TAP	40	96	4
TAP	40	192	3
STR	40	288	3
SUR	40	288	3	96	384	1
TAP	42	192	0
TAP	42	192	2
STR	43	0	7
SUR	43	0	7	96	336	5
TAP	44	192	4
TAP	44	192	6
STR	45	0	3
SXR	45	0	3	96	288	1
STR	45	0	4
SXL	45	0	4	96	288	6
TAP	46	192	0
TAP	46	192	7
HLD	47	0	1	384
HLD	47	0	6	384
TAP	48	192	0
TAP	48	192	7
HLD	49	0	1	192
HLD	49	192	2	192
TAP	50	0	3
TAP	50	192	3
TAP	50	192	4
HLD	51	0	6	192
HLD	51	192	5	192
TAP	52	0	4
TAP	52	192	3
TAP	52	192	6
HLD	53	0	1	192
HLD	53	192	0	192
HLD	54	0	7	192
TAP	54	192	6
STR	55	0	0
SI_	55	0	0	96	192	3
STR	55	0	7
SI_	55	0	7	96	192	4
TAP	56	0	2
TAP	56	0	5
TAP	57	0	2
TAP	57	96	2
TAP	57	96	3
TAP	57	192	5
TAP	57	288	4
TAP	57	288	5
TAP	58	0	1
TAP	58	96	0
TAP	58	96	1
TAP	58	192	2
TAP	58	192	7
TAP	59	0	5
TAP	59	96	4
TAP	59	96	6
TAP	59	192	5
TAP	59	240	5
TAP	59	288	5
TAP	60	0	2
TAP	60	96	1
TAP	60	96	3
TAP	60	192	2
TAP	60	240	2
TAP	60	288	2
TAP	61	0	6
TAP	61	96	6
TAP	61	96	7
TAP	61	192	1
TAP	61	288	0
TAP	61	288	1
TAP	62	0	5
TAP	62	96	4
TAP	62	96	5
TAP	62	192	3
TAP	62	192	6
TAP	63	0	1
TAP	63	96	0
TAP	63	96	2
TAP	63	192	1
TAP	63	240	1
TAP	63	288	1
TAP	64	0	0
TAP	64	0	7
TAP	64	96	1
TAP	64	96	6
BRK	64	192	2
BRK	64	192	5
TAP	65	0	1
TAP	65	96	2
TAP	65	192	3
TAP	65	192	4
TAP	65	288	2
TAP	65	288	5
TAP	66	0	6
TAP	66	96	6
TAP	66	96	7
TAP	66	192	0
TAP	66	192	5
TAP	67	0	6
TAP	67	96	5
TAP	67	192	3
TAP	67	192	4
TAP	67	288	2
TAP	67	288	5
TAP	68	0	1
TAP	68	96	0
TAP	68	96	1
TAP	68	192	2
TAP	68	192	7
TAP	69	0	6
TAP	69	0	7
TAP	69	96	0
TAP	69	96	5
TAP	69	192	1
TAP	69	192	4
TAP	70	0	0
TAP	70	0	1
TAP	70	96	2
TAP	70	96	7
TAP	70	192	3
TAP	70	192	6
TAP	71	0	5
TAP	71	96	4
TAP	71	96	6
TAP	71	192	2
TAP	71	288	1
TAP	71	288	3
TAP	72	0	0
TAP	72	96	7
TAP	72	192	1
TAP	72	192	6
STR	73	0	3
SCL	73	0	3	96	144	0
TAP	73	0	4
TAP	74	0	0
STR	74	0	7
SCL	74	0	7	96	144	4
STR	75	0	3
SXR	75	0	3	96	480	0
STR	75	0	4
SXL	75	0	4	96	480	7
BRK	77	0	1
BRK	77	0	6
TAP	77	96	2
TAP	77	192	3
TAP	77	288	4
TAP	78	0	5
TAP	78	96	4
TAP	78	192	3
TAP	78	192	6
TAP	79	0	1
TAP	79	0	6
TAP	79	96	5
TAP	79	192	4
TAP	79	288	3
TAP	80	0	2
TAP	80	96	3
TAP	80	192	1
TAP	80	192	4
TAP	81	0	6
TAP	81	0	7
TAP	81	96	5
TAP	81	192	4
TAP	81	288	2
TAP	81	288	3
TAP	82	0	1
TAP	82	96	0
TAP	82	192	2
TAP	82	192	7
TAP	83	0	0
TAP	83	0	1
TAP	83	96	2
TAP	83	192	3
TAP	83	288	4
TAP	83	288	5
TAP	84	0	6
TAP	84	96	7
TAP	84	192	0
TAP	84	192	5
HLD	85	0	2	96
HLD	85	0	3	96
HLD	85	192	4	96
HLD	85	192	5	96
HLD	86	0	1	96
HLD	86	0	3	96
HLD	86	192	4	96
HLD	86	192	6	96
TAP	87	0	2
TAP	87	0	3
TAP	87	96	1
TAP	87	192	4
TAP	87	192	5
TAP	87	288	6
TAP	88	0	3
TAP	88	0	4
TAP	88	96	2
TAP	88	96	5
TAP	88	192	1
TAP	88	192	6
BST	88	288	0
SI_	88	288	0	96	144	3
BRK	88	288	7

T_REC_TAP	275
T_REC_BRK	7
T_REC_XTP	0
T_REC_HLD	33
T_REC_XHO	0
T_REC_STR	12
T_REC_BST	3
T_REC_XST	0
T_REC_TTP	0
T_REC_THO	0
T_REC_SLD	15
T_REC_ALL	345
T_NUM_TAP	287
T_NUM_BRK	10
T_NUM_HLD	33
T_NUM_SLD	15
T_NUM_ALL	345
T_JUDGE_TAP	297
T_JUDGE_HLD	108
T_JUDGE_SLD	15
T_JUDGE_ALL	420
TTM_EACHPAIRS	95
TTM_SCR_TAP	143500
TTM_SCR_BRK	26000
TTM_SCR_HLD	33000
TTM_SCR_SLD	22500
TTM_SCR_ALL	225000
TTM_SCR_S	217300
TTM_SCR_SS	224000
TTM_RAT_ACV	10044

