VERSION	0.00.00	1.03.00
FES_MODE	0
BPM_DEF	160.000	160.000	160.000	160.000
MET_DEF	4	4
RESOLUTION	384
CLK_DEF	384
COMPATIBLE_CODE	MA2

BPM	0	0	160.000
MET	0	0	4	4

TAP	5	0	0
TAP	5	96	0
TAP	5	192	0
TAP	6	0	7
TAP	6	96	7
TAP	6	192	7
TAP	7	0	0
TAP	7	96	0
TAP	7	192	0
HLD	8	0	7	192
TAP	9	0	0
TAP	9	96	0
TAP	9	192	1
TAP	10	0	2
TAP	10	96	3
TAP	10	192	2
TAP	11	0	4
TAP	11	96	4
TAP	11	192	5
TAP	12	0	6
TAP	12	96	7
TAP	12	192	6
HLD	13	0	7	192
TAP	14	0	7
TAP	14	96	0
TAP	14	192	7
HLD	15	0	0	192
TAP	16	0	0
TAP	16	96	7
BRK	16	192	0
TAP	17	0	7
TAP	17	96	7
TAP	17	192	6
TAP	18	0	5
TAP	18	96	4
TAP	18	192	5
TAP	19	0	3
TAP	19	96	3
TAP	19	192	2
TAP	20	0	1
TAP	20	96	0
TAP	20	192	1
HLD	21	0	0	192
TAP	22	0	0
TAP	22	96	7
TAP	22	192	0
HLD	23	0	7	192
TAP	24	0	7
TAP	24	96	0
BRK	24	192	7
STR	25	0	0
SI_	25	0	0	96	288	4
STR	27	0	6
SI_	27	0	6	96	288	2
STR	29	0	3
SI_	29	0	3	96	288	7
STR	31	0	5
SI_	31	0	5	96	288	0
HLD	33	0	0	192
TAP	34	0	0
TAP	34	0	1
TAP	34	192	0
TAP	34	192	1
HLD	35	0	2	192
TAP	36	0	2
TAP	36	0	3
TAP	36	192	2
TAP	36	192	3
HLD	37	0	4	192
TAP	38	0	4
TAP	38	0	5
TAP	38	192	4
TAP	38	192	5
HLD	39	0	6	192
TAP	40	0	6
TAP	40	0	7
TAP	40	192	6
TAP	40	192	7
BRK	41	0	7
TAP	42	0	7
STR	43	0	7
SI_	43	0	7	96	288	3
TAP	45	0	0
TAP	46	0	0
STR	47	0	0
SI_	47	0	0	96	288	4
TAP	49	0	7
TAP	49	192	0
TAP	49	192	7
TAP	50	0	7
TAP	50	192	0
TAP	50	192	7
TAP	51	0	0
TAP	51	192	0
TAP	51	192	7
TAP	52	0	0
TAP	52	192	0
TAP	52	192	7
HLD	53	0	0	192
HLD	53	0	7	192
TAP	54	0	0
TAP	54	0	7
TAP	54	192	0
TAP	54	192	7
STR	55	0	0
SI_	55	0	0	96	288	3
STR	55	0	7
SI_	55	0	7	96	288	4
TAP	57	0	2
TAP	57	96	2
TAP	57	192	2
TAP	57	192	3
TAP	58	0	5
TAP	58	96	5
TAP	58	192	4
TAP	58	192	5
TAP	59	0	3
TAP	59	96	3
TAP	59	192	4
TAP	59	288	4
TAP	60	0	3
TAP	60	96	3
TAP	60	192	3
TAP	60	192	4
TAP	61	0	5
TAP	61	96	5
TAP	61	192	4
TAP	61	192	5
TAP	62	0	2
TAP	62	96	2
TAP	62	192	2
TAP	62	192	3
TAP	63	0	4
TAP	63	96	4
TAP	63	192	3
TAP	63	288	3
TAP	64	0	4
TAP	64	96	4
TAP	64	192	3
TAP	64	192	4
TAP	65	0	3
TAP	65	96	3
TAP	65	192	2
TAP	65	288	2
TAP	66	0	0
TAP	66	0	1
TAP	66	96	0
TAP	66	96	1
TAP	66	192	0
TAP	66	192	1
TAP	67	0	7
TAP	67	96	7
TAP	67	192	6
TAP	67	288	6
TAP	68	0	4
TAP	68	0	5
TAP	68	96	4
TAP	68	96	5
TAP	68	192	4
TAP	68	192	5
TAP	69	0	4
TAP	69	96	4
TAP	69	192	5
TAP	69	288	5
TAP	70	0	6
TAP	70	96	6
TAP	70	192	7
TAP	70	288	7
HLD	71	0	0	384
TAP	73	0	0
TAP	73	0	1
TAP	74	0	6
TAP	74	0	7
HLD	75	0	0	384
HLD	75	0	7	384
STR	77	0	1
SI_	77	0	1	96	288	4
TAP	78	192	5
STR	79	0	6
SI_	79	0	6	96	288	3
TAP	80	192	2
TAP	81	0	2
TAP	81	0	3
TAP	81	192	4
TAP	81	192	5
TAP	82	0	2
TAP	82	0	3
TAP	82	192	4
TAP	82	192	5
TAP	83	0	2
TAP	83	0	3
TAP	83	96	2
TAP	83	96	3
TAP	83	192	4
TAP	83	192	5
TAP	83	288	4
TAP	83	288	5
TAP	84	0	2
TAP	84	0	3
TAP	84	96	2
TAP	84	96	3
TAP	84	192	4
TAP	84	192	5
TAP	84	288	4
TAP	84	288	5
TAP	85	0	3
TAP	85	96	3
TAP	85	192	2
TAP	85	288	2
TAP	86	0	1
TAP	86	96	1
TAP	86	192	0
TAP	86	288	0
TAP	87	0	7
TAP	87	96	7
TAP	87	192	6
TAP	87	288	6
TAP	88	0	5
TAP	88	96	5
TAP	88	192	4
TAP	88	288	4
BRK	89	0	3

T_REC_TAP	184
T_REC_BRK	4
T_REC_XTP	0
T_REC_HLD	14
T_REC_XHO	0
T_REC_STR	10
T_REC_BST	0
T_REC_XST	0
T_REC_TTP	0
T_REC_THO	0
T_REC_SLD	10
T_REC_ALL	222
T_NUM_TAP	194
T_NUM_BRK	4
T_NUM_HLD	14
T_NUM_SLD	10
T_NUM_ALL	222
T_JUDGE_TAP	198
T_JUDGE_HLD	68
T_JUDGE_SLD	10
T_JUDGE_ALL	276
TTM_EACHPAIRS	43
TTM_SCR_TAP	97000
TTM_SCR_BRK	10400
TTM_SCR_HLD	14000
TTM_SCR_SLD	15000
TTM_SCR_ALL	136400
TTM_SCR_S	131950
TTM_SCR_SS	136000
TTM_RAT_ACV	10029

