VERSION	0.00.00	1.03.00
FES_MODE	0
BPM_DEF	176.000	176.000	176.000	176.000
MET_DEF	4	4
RESOLUTION	384
CLK_DEF	384
COMPATIBLE_CODE	MA2

BPM	0	0	176.000
MET	0	0	4	4
MET	102	0	4	2
MET	102	192	4	4

TAP	1	240	4
TAP	1	288	4
TAP	1	336	4
TAP	2	0	3
STR	2	0	5
SCR	2	0	5	96	48	0
TAP	2	96	1
TAP	2	192	2
TAP	2	240	3
TAP	2	288	1
TAP	2	288	4
TAP	3	0	5
TAP	3	48	4
TAP	3	96	3
TAP	3	96	6
TAP	3	192	5
TAP	3	240	4
TAP	3	288	3
TAP	3	336	2
STR	4	0	1
SI_	4	0	1	96	48	4
TAP	4	0	4
TAP	4	96	5
STR	4	144	5
SI_	4	144	5	96	48	0
STR	4	240	2
SCL	4	240	2	96	144	5
TAP	4	336	5
TAP	5	192	0
TAP	5	192	7
TAP	5	288	4
TAP	5	312	3
TAP	5	336	4
TAP	5	360	3
STR	6	0	5
SCL	6	0	5	96	48	2
TAP	6	96	0
TAP	6	192	1
TAP	6	240	2
TAP	6	288	3
STR	6	336	1
SCL	6	336	1	96	48	6
TAP	6	336	4
TAP	7	48	5
STR	7	96	5
SI_	7	96	5	96	48	0
STR	7	192	1
SUR	7	192	1	96	144	4
TAP	7	288	7
TAP	7	336	7
TAP	8	48	5
STR	8	96	5
SI_	8	96	5	96	48	0
SI_	8	96	5	96	48	1
TAP	8	288	0
TAP	8	288	1
TAP	8	336	2
TAP	8	336	7
TAP	9	48	6
TAP	9	96	7
TAP	9	144	0
TAP	9	144	5
TAP	9	192	4
TAP	9	240	3
TAP	9	288	1
TAP	9	288	6
TAP	10	0	0
TAP	10	96	2
TAP	10	144	3
HLD	10	192	4	96
TAP	10	288	5
TAP	11	0	0
TAP	11	96	2
TAP	11	144	3
HLD	11	192	4	96
TAP	11	288	5
TAP	12	0	0
TAP	12	96	2
TAP	12	144	3
HLD	12	192	4	96
TAP	12	288	5
STR	13	0	6
SI_	13	0	6	96	48	3
TAP	13	48	1
TAP	13	96	6
STR	13	192	6
SI_	13	192	6	96	48	3
TAP	13	240	1
TAP	13	288	6
TAP	14	0	0
TAP	14	96	2
TAP	14	144	3
HLD	14	192	4	96
TAP	14	288	5
TAP	15	0	0
TAP	15	96	2
TAP	15	144	3
HLD	15	192	4	96
TAP	15	288	5
TAP	16	0	0
TAP	16	96	2
TAP	16	144	3
HLD	16	192	4	96
TAP	16	288	5
STR	17	0	1
SI_	17	0	1	96	48	4
TAP	17	48	6
TAP	17	96	1
STR	17	192	1
SI_	17	192	1	96	48	4
TAP	17	240	6
TAP	17	288	1
TAP	18	0	0
HLD	18	0	7	288
TAP	18	96	0
STR	18	192	0
SV_	18	192	0	96	48	5
HLD	19	0	6	288
TAP	19	0	7
TAP	19	96	7
STR	19	192	7
SV_	19	192	7	96	48	4
HLD	20	0	5	288
TAP	20	0	6
TAP	20	96	6
STR	20	192	6
SV_	20	192	6	96	48	3
HLD	21	0	4	96
STR	21	0	5
SV_	21	0	5	96	48	2
HLD	21	192	3	96
STR	21	192	4
SV_	21	192	4	96	48	1
HLD	22	0	0	288
TAP	22	0	7
TAP	22	96	7
STR	22	192	7
SV_	22	192	7	96	48	2
TAP	23	0	0
HLD	23	0	1	288
TAP	23	96	0
STR	23	192	0
SV_	23	192	0	96	48	3
TAP	24	0	1
HLD	24	0	2	288
TAP	24	96	1
STR	24	192	1
SV_	24	192	1	96	48	4
STR	25	0	2
SV_	25	0	2	96	48	5
HLD	25	0	3	96
TAP	25	192	3
TAP	25	192	4
TAP	25	240	5
TAP	25	288	6
TAP	25	336	7
TAP	26	0	0
TAP	26	0	1
TAP	26	48	2
TAP	26	48	7
TAP	26	144	4
TAP	26	144	5
TAP	26	192	3
TAP	26	192	6
TAP	26	288	7
STR	26	336	7
SI_	26	336	7	96	48	3
STR	27	48	0
SI_	27	48	0	96	48	2
STR	27	144	6
SI_	27	144	6	96	48	4
HLD	27	240	7	144
TAP	28	0	6
TAP	28	48	0
TAP	28	48	5
TAP	28	144	2
TAP	28	144	3
TAP	28	192	1
TAP	28	192	4
TAP	28	288	0
STR	28	336	0
SI_	28	336	0	96	48	4
STR	29	48	7
SI_	29	48	7	96	48	5
STR	29	144	1
SI_	29	144	1	96	48	3
TAP	29	240	0
TAP	29	288	7
HLD	29	336	6	96
TAP	30	48	7
TAP	30	96	0
TAP	30	96	5
TAP	30	144	2
TAP	30	168	3
TAP	30	192	2
TAP	30	240	1
TAP	30	240	4
TAP	30	288	0
TAP	30	288	5
TAP	30	336	6
TAP	30	336	7
TAP	31	48	0
TAP	31	48	1
TAP	31	96	2
TAP	31	96	7
TAP	31	144	5
TAP	31	168	4
TAP	31	192	5
TAP	31	240	3
TAP	31	240	6
TAP	31	288	0
TAP	31	312	7
TAP	31	336	0
TAP	31	360	7
TAP	32	0	1
TAP	32	0	6
STR	32	336	7
SI_	32	336	7	96	48	3
TAP	33	48	0
TAP	33	96	1
TAP	33	144	2
TAP	33	192	3
TAP	33	192	4
TAP	33	240	5
TAP	33	288	6
TAP	33	336	7
TAP	34	0	0
TAP	34	0	1
TAP	34	48	6
TAP	34	48	7
STR	34	96	0
SI_	34	96	0	96	48	4
HLD	34	192	7	96
TAP	34	288	3
TAP	34	304	2
TAP	34	304	6
TAP	34	320	1
TAP	34	320	5
TAP	34	336	0
TAP	34	336	4
STR	35	0	0
SCR	35	0	0	96	48	3
TAP	35	96	6
STR	35	144	6
SUL	35	144	6	96	48	2
TAP	35	240	1
STR	35	288	1
SUL	35	288	1	96	48	4
STR	36	0	7
SCL	36	0	7	96	144	0
TAP	36	96	3
HLD	36	144	3	144
TAP	36	288	7
TAP	36	336	7
STR	37	0	6
SUL	37	0	6	96	72	1
TAP	37	96	0
HLD	37	144	0	144
STR	37	288	2
SXL	37	288	2	96	96	3
SLL	37	288	2	96	96	3
TAP	38	144	6
TAP	38	144	7
STR	38	288	0
SCR	38	288	0	96	48	3
TAP	38	288	6
TAP	38	336	7
TAP	39	0	0
TAP	39	96	4
STR	39	144	4
SXR	39	144	4	96	96	3
STR	39	240	3
SCR	39	240	3	96	96	7
TAP	39	336	0
STR	40	96	1
SI_	40	96	1	96	48	6
TAP	40	192	1
STR	40	192	5
SI_	40	192	5	96	48	2
STR	40	288	0
SI_	40	288	0	96	48	3
TAP	40	288	5
TAP	41	0	0
STR	41	0	4
SUR	41	0	4	96	192	7
TAP	41	96	0
HLD	41	144	0	144
TAP	42	0	1
STR	42	48	1
SCR	42	48	1	96	80	7
HLD	42	144	5	144
TAP	42	240	0
TAP	42	256	1
TAP	42	272	2
TAP	42	288	3
STR	43	0	7
SI_	43	0	7	96	48	3
TAP	43	96	2
STR	43	144	2
SUR	43	144	2	96	48	6
TAP	43	240	7
STR	43	288	7
SCL	43	288	7	96	48	4
STR	44	0	1
SUR	44	0	1	96	144	2
TAP	44	96	5
HLD	44	144	5	144
TAP	44	288	2
TAP	44	336	3
TAP	44	336	4
TAP	45	0	1
TAP	45	0	6
TAP	45	96	0
TAP	45	96	7
STR	45	144	0
SCL	45	144	0	96	48	5
STR	45	144	7
SCR	45	144	7	96	48	2
STR	45	240	0
SI_	45	240	0	96	48	4
STR	45	240	7
SI_	45	240	7	96	48	3
STR	45	336	0
SCR	45	336	0	96	48	3
STR	45	336	7
SCL	45	336	7	96	48	4
TAP	46	48	0
TAP	46	48	7
BRK	46	144	0
BRK	46	144	7
TAP	46	288	5
TAP	46	312	4
TAP	46	336	3
TAP	46	360	2
TAP	47	0	1
TAP	47	0	6
TAP	47	96	0
TAP	47	96	4
TAP	47	144	1
TAP	47	144	5
TAP	47	192	2
TAP	47	192	6
STR	47	240	3
SLL	47	240	3	96	96	7
STR	47	240	7
SLL	47	240	7	96	96	3
TAP	47	336	3
TAP	47	336	7
TAP	48	96	1
TAP	48	96	5
TAP	48	192	3
TAP	48	192	7
STR	48	240	3
SXR	48	240	3	96	192	0
STR	48	240	7
SXR	48	240	7	96	192	4
TAP	48	336	3
TAP	48	336	7
TAP	49	192	1
TAP	49	192	5
TAP	49	288	0
TAP	49	312	7
TAP	49	336	0
TAP	49	360	7
TAP	50	0	1
TAP	50	0	6
TAP	50	144	3
TAP	50	168	3
TAP	50	192	4
TAP	50	288	0
TAP	50	288	7
STR	51	0	6
SXR	51	0	6	96	72	4
STR	51	144	7
SCR	51	144	7	96	96	3
HLD	51	288	5	144
TAP	52	48	4
TAP	52	144	3
HLD	52	192	3	72
HLD	52	264	2	72
TAP	52	336	1
STR	53	0	1
SXL	53	0	1	96	72	3
STR	53	144	0
SCL	53	144	0	96	96	4
HLD	53	288	2	144
TAP	54	48	3
TAP	54	144	4
TAP	54	144	5
STR	54	192	4
SI_	54	192	4	96	48	2
STR	54	192	5
SI_	54	192	5	96	48	7
TAP	54	288	4
TAP	54	288	5
STR	55	0	1
SI_	55	0	1	96	48	5
TAP	55	96	1
STR	55	144	6
SI_	55	144	6	96	48	2
TAP	55	240	6
STR	55	288	0
SI_	55	288	0	96	48	4
TAP	56	0	0
STR	56	48	7
SI_	56	48	7	96	48	3
TAP	56	144	7
TAP	56	192	0
TAP	56	240	1
TAP	56	288	2
TAP	56	288	4
HLD	57	0	3	96
HLD	57	0	6	96
HLD	57	144	0	96
HLD	57	144	5	96
STR	57	288	3
SCL	57	288	3	96	144	5
STR	57	288	7
SXL	57	288	7	96	144	4
TAP	58	192	3
TAP	58	240	2
TAP	58	288	1
TAP	58	336	0
TAP	58	336	4
TAP	59	0	0
TAP	59	0	4
TAP	59	96	2
TAP	59	96	6
TAP	59	144	2
TAP	59	144	6
STR	59	240	1
SI_	59	240	1	96	48	4
TAP	59	288	0
TAP	59	336	7
STR	60	0	6
SI_	60	0	6	96	48	3
TAP	60	48	7
TAP	60	96	0
STR	60	144	1
SI_	60	144	1	96	48	4
TAP	60	192	0
TAP	60	240	7
TAP	60	288	6
TAP	61	0	5
TAP	61	16	4
TAP	61	32	3
TAP	61	48	2
TAP	61	64	1
TAP	61	80	0
TAP	61	96	7
TAP	61	112	6
TAP	61	128	5
TAP	61	144	4
TAP	61	160	3
TAP	61	176	2
TAP	61	192	1
TAP	61	208	0
TAP	61	224	7
TAP	61	240	6
TAP	61	256	5
TAP	61	272	4
BRK	61	288	0
STR	62	0	7
SCL	62	0	7	96	48	4
TAP	62	48	0
TAP	62	96	1
TAP	62	144	2
STR	62	192	3
SCL	62	192	3	96	48	0
TAP	62	240	4
TAP	62	288	5
TAP	62	336	6
TAP	63	0	7
TAP	63	48	0
TAP	63	96	1
HLD	63	144	2	96
TAP	63	144	3
TAP	63	240	7
TAP	63	288	6
TAP	63	336	4
HLD	63	336	5	96
TAP	64	48	0
TAP	64	96	1
TAP	64	144	2
TAP	64	144	3
TAP	64	192	4
HLD	64	192	5	72
HLD	64	264	6	72
TAP	64	336	7
TAP	65	0	0
TAP	65	0	1
TAP	65	48	2
TAP	65	48	7
TAP	65	144	0
TAP	65	144	5
STR	65	240	0
SCR	65	240	0	96	192	7
STR	65	240	7
SCL	65	240	7	96	192	0
TAP	65	336	0
TAP	65	336	7
STR	66	192	7
SI_	66	192	7	96	48	3
TAP	66	288	7
TAP	67	0	0
TAP	67	0	4
TAP	67	48	0
STR	67	48	4
SI_	67	48	4	96	48	7
SCR	67	48	4	96	48	7
STR	67	144	4
SI_	67	144	4	96	48	1
SCL	67	144	4	96	48	1
STR	67	240	4
SF_	67	240	4	96	48	0
TAP	67	336	4
TAP	68	48	2
TAP	68	48	6
TAP	68	96	2
TAP	68	96	6
TAP	68	192	1
TAP	68	240	2
TAP	68	288	3
TAP	68	336	4
TAP	69	0	5
TAP	69	48	4
TAP	69	48	6
TAP	69	144	2
TAP	69	192	1
TAP	69	192	3
TAP	69	288	7
STR	69	336	7
SCL	69	336	7	96	48	4
STR	70	48	7
SCR	70	48	7	96	48	2
STR	70	144	7
SI_	70	144	7	96	48	3
TAP	70	240	7
TAP	71	0	2
TAP	71	48	1
TAP	71	48	3
TAP	71	144	5
TAP	71	192	4
TAP	71	192	6
TAP	71	288	0
STR	71	336	0
SI_	71	336	0	96	48	4
STR	72	48	7
SI_	72	48	7	96	48	3
STR	72	144	1
SI_	72	144	1	96	48	5
STR	72	240	4
SCR	72	240	4	96	192	3
HLD	72	336	0	288
STR	73	240	4
SCR	73	240	4	96	192	3
TAP	73	288	0
TAP	73	336	4
TAP	74	288	3
TAP	74	312	4
TAP	74	336	3
TAP	74	360	4
TAP	75	0	2
TAP	75	0	5
STR	75	336	0
SI_	75	336	0	96	48	4
TAP	76	48	5
TAP	76	96	6
TAP	76	144	7
TAP	76	192	0
TAP	76	192	4
TAP	76	240	3
TAP	76	240	7
TAP	76	288	2
TAP	76	288	6
TAP	76	336	1
TAP	76	336	5
TAP	77	0	0
TAP	77	0	4
TAP	77	48	0
TAP	77	48	4
STR	77	96	7
SI_	77	96	7	96	48	3
HLD	77	192	0	96
BRK	77	288	4
BRK	77	304	1
BRK	77	304	5
BRK	77	320	2
BRK	77	320	6
BRK	77	336	3
BRK	77	336	7
STR	78	0	7
SCL	78	0	7	96	48	4
TAP	78	96	1
STR	78	144	1
SUR	78	144	1	96	48	5
TAP	78	240	6
STR	78	288	6
SUR	78	288	6	96	48	3
STR	79	0	0
SCR	79	0	0	96	144	7
TAP	79	96	4
HLD	79	144	4	144
TAP	79	288	0
TAP	79	336	0
STR	80	0	5
SUR	80	0	5	96	72	2
TAP	80	96	3
HLD	80	144	3	144
STR	80	288	1
SCL	80	288	1	96	96	4
TAP	81	0	2
TAP	81	96	3
BRK	81	144	1
BRK	81	144	6
TAP	81	288	1
STR	81	288	7
SCL	81	288	7	96	48	4
TAP	81	336	0
TAP	82	0	7
TAP	82	96	3
STR	82	144	3
SXR	82	144	3	96	96	4
STR	82	240	4
SCR	82	240	4	96	144	3
TAP	82	336	0
STR	83	96	6
SI_	83	96	6	96	48	1
STR	83	192	2
SI_	83	192	2	96	48	5
TAP	83	192	6
TAP	83	288	2
STR	83	288	7
SI_	83	288	7	96	48	4
STR	84	0	3
SUL	84	0	3	96	192	0
TAP	84	0	7
TAP	84	96	7
HLD	84	144	7	144
TAP	85	0	6
STR	85	48	6
SCL	85	48	6	96	80	0
HLD	85	144	2	144
TAP	85	240	7
TAP	85	256	6
TAP	85	272	5
BRK	85	288	4
STR	86	0	0
SI_	86	0	0	96	48	4
TAP	86	96	5
STR	86	144	5
SUL	86	144	5	96	48	1
TAP	86	240	0
STR	86	288	0
SCR	86	288	0	96	48	3
STR	87	0	6
SUL	87	0	6	96	144	5
TAP	87	96	2
HLD	87	144	2	144
TAP	87	288	5
TAP	87	336	3
TAP	87	336	4
TAP	88	0	1
TAP	88	0	6
TAP	88	96	0
TAP	88	96	7
BST	88	144	0
SCL	88	144	0	96	48	5
BST	88	144	7
SCR	88	144	7	96	48	2
BST	88	240	0
SI_	88	240	0	96	48	4
BST	88	240	7
SI_	88	240	7	96	48	3
BST	88	336	0
SCR	88	336	0	96	48	3
BST	88	336	7
SCL	88	336	7	96	48	4
TAP	89	48	0
TAP	89	48	7
BRK	89	144	0
BRK	89	144	7
TAP	89	288	2
TAP	89	312	3
TAP	89	336	4
TAP	89	360	5
TAP	90	0	1
TAP	90	0	6
TAP	90	96	3
TAP	90	96	7
TAP	90	144	2
TAP	90	144	6
TAP	90	192	1
TAP	90	192	5
STR	90	240	0
SLR	90	240	0	96	96	4
STR	90	240	4
SLR	90	240	4	96	96	0
TAP	90	336	0
TAP	90	336	4
TAP	91	96	2
TAP	91	96	6
TAP	91	192	1
TAP	91	192	5
STR	91	240	1
SCR	91	240	1	96	48	4
STR	91	240	5
SCR	91	240	5	96	48	0
TAP	91	336	1
TAP	91	336	5
STR	92	96	2
SCL	92	96	2	96	48	7
STR	92	96	6
SCL	92	96	6	96	48	3
STR	92	192	6
SUL	92	192	6	96	48	0
BRK	93	0	3
HLD	93	0	7	288
STR	94	0	2
SCL	94	0	2	96	48	7
TAP	94	0	4
TAP	94	96	6
TAP	94	192	5
TAP	94	240	4
TAP	94	288	3
TAP	94	288	6
TAP	95	0	2
TAP	95	48	3
TAP	95	96	1
TAP	95	96	4
TAP	95	192	2
TAP	95	240	3
TAP	95	288	4
TAP	95	336	5
TAP	96	0	3
STR	96	0	6
SI_	96	0	6	96	48	2
TAP	96	96	3
STR	96	144	3
SI_	96	144	3	96	48	7
STR	96	240	4
SCR	96	240	4	96	144	3
TAP	96	336	0
TAP	97	192	0
TAP	97	192	7
TAP	97	288	3
TAP	97	312	4
TAP	97	336	3
TAP	97	360	4
STR	98	0	2
SCR	98	0	2	96	48	5
TAP	98	96	7
TAP	98	192	6
TAP	98	240	5
TAP	98	288	4
TAP	98	336	3
STR	98	336	6
SCR	98	336	6	96	48	1
TAP	99	48	2
STR	99	96	2
SI_	99	96	2	96	48	7
STR	99	192	6
SUL	99	192	6	96	144	3
TAP	99	288	0
TAP	99	336	0
TAP	100	48	2
STR	100	96	2
SI_	100	96	2	96	48	6
SI_	100	96	2	96	48	7
TAP	100	288	6
TAP	100	288	7
TAP	100	336	0
TAP	100	336	5
TAP	101	48	1
TAP	101	48	6
TAP	101	96	2
TAP	101	96	5
TAP	101	144	3
TAP	101	144	4
TAP	101	192	0
TAP	101	192	7
TAP	101	240	1
TAP	101	240	6
TAP	101	288	2
TAP	101	288	5
STR	102	0	0
SI_	102	0	0	96	48	4
TAP	102	24	4
TAP	102	48	2
TAP	102	72	6
BST	102	96	0
SCL	102	96	0	96	1104	1
SCR	102	96	0	96	1104	7

T_REC_TAP	462
T_REC_BRK	16
T_REC_XTP	0
T_REC_HLD	43
T_REC_XHO	0
T_REC_STR	126
T_REC_BST	7
T_REC_XST	0
T_REC_TTP	0
T_REC_THO	0
T_REC_SLD	139
T_REC_ALL	793
T_NUM_TAP	588
T_NUM_BRK	23
T_NUM_HLD	43
T_NUM_SLD	139
T_NUM_ALL	793
T_JUDGE_TAP	611
T_JUDGE_HLD	131
T_JUDGE_SLD	139
T_JUDGE_ALL	881
TTM_EACHPAIRS	144
TTM_SCR_TAP	294000
TTM_SCR_BRK	59800
TTM_SCR_HLD	43000
TTM_SCR_SLD	208500
TTM_SCR_ALL	605300
TTM_SCR_S	584950
TTM_SCR_SS	603000
TTM_RAT_ACV	10038

