VERSION	0.00.00	1.03.00
FES_MODE	0
BPM_DEF	176.000	176.000	176.000	176.000
MET_DEF	4	4
RESOLUTION	384
CLK_DEF	384
COMPATIBLE_CODE	MA2

BPM	0	0	176.000
MET	0	0	4	4
MET	102	0	4	2
MET	102	192	4	4

TAP	2	0	1
TAP	2	0	6
TAP	2	96	3
TAP	2	96	4
TAP	2	192	2
TAP	2	288	1
TAP	2	288	3
TAP	3	0	5
TAP	3	96	4
TAP	3	96	6
TAP	3	192	1
TAP	3	288	0
TAP	3	288	2
HLD	4	0	6	144
TAP	4	96	7
TAP	4	144	7
STR	4	240	4
SCL	4	240	4	96	144	6
TAP	4	240	5
TAP	5	192	3
TAP	5	192	4
TAP	5	288	2
TAP	5	288	3
TAP	6	0	3
TAP	6	0	5
TAP	6	96	4
TAP	6	192	6
TAP	6	240	6
TAP	6	288	7
TAP	7	0	2
TAP	7	0	4
TAP	7	96	3
TAP	7	192	1
TAP	7	240	1
TAP	7	288	0
TAP	8	0	3
TAP	8	0	4
TAP	8	96	2
TAP	8	96	5
TAP	8	192	0
TAP	8	192	7
TAP	8	288	1
TAP	8	288	6
TAP	8	336	1
TAP	8	336	6
TAP	9	48	2
TAP	9	96	3
TAP	9	144	4
TAP	9	192	3
TAP	9	240	4
STR	9	288	5
SCL	9	288	5	96	192	2
STR	10	288	5
SCL	10	288	5	96	192	2
STR	11	288	5
SCL	11	288	5	96	192	2
STR	12	288	5
SCL	12	288	5	96	192	2
STR	13	288	5
SUL	13	288	5	96	192	1
STR	14	288	5
SUR	14	288	5	96	192	1
STR	15	288	5
SCL	15	288	5	96	192	2
STR	16	288	5
SCL	16	288	5	96	192	2
TAP	17	288	3
TAP	17	288	4
TAP	18	0	2
HLD	18	0	5	1440
TAP	18	96	4
TAP	18	192	4
TAP	18	288	2
TAP	19	0	3
TAP	19	96	4
TAP	19	192	4
TAP	19	288	2
TAP	20	0	3
TAP	20	96	4
TAP	20	192	4
TAP	20	288	2
TAP	21	0	3
TAP	21	96	4
TAP	21	192	4
TAP	21	288	2
TAP	22	0	1
HLD	22	0	6	1152
TAP	22	96	4
TAP	22	192	4
TAP	22	288	1
TAP	23	0	3
TAP	23	96	4
TAP	23	192	4
TAP	23	288	1
TAP	24	0	3
TAP	24	96	4
TAP	24	192	4
TAP	24	288	3
TAP	25	0	1
TAP	25	192	4
TAP	25	240	4
TAP	25	288	3
HLD	26	0	0	288
STR	26	0	5
SCL	26	0	5	96	96	2
TAP	26	288	7
STR	27	0	2
SCR	27	0	2	96	96	5
HLD	27	0	7	288
TAP	27	288	0
HLD	28	0	0	288
STR	28	0	5
SCL	28	0	5	96	96	2
TAP	28	288	7
STR	29	0	2
SCR	29	0	2	96	96	5
HLD	29	0	7	288
TAP	29	288	0
TAP	30	0	3
TAP	30	0	4
TAP	30	96	4
TAP	30	96	6
TAP	30	192	5
TAP	30	240	5
TAP	30	288	4
TAP	30	288	5
TAP	31	0	3
TAP	31	0	4
TAP	31	96	1
TAP	31	96	3
TAP	31	192	2
TAP	31	240	2
TAP	31	288	2
TAP	31	288	3
BRK	32	0	0
HLD	32	336	3	96
HLD	32	336	4	96
TAP	33	96	3
TAP	33	96	4
TAP	33	192	0
TAP	33	192	7
TAP	33	288	2
TAP	33	288	5
TAP	34	0	1
TAP	34	0	6
TAP	34	48	1
TAP	34	48	6
TAP	34	288	3
TAP	34	288	4
STR	35	0	2
SCL	35	0	2	96	48	7
TAP	35	0	4
TAP	35	192	3
STR	35	192	5
SCR	35	192	5	96	48	0
STR	36	0	2
SCL	36	0	2	96	48	7
TAP	36	0	4
TAP	36	192	3
TAP	36	192	5
TAP	36	288	0
TAP	36	336	0
STR	37	0	1
SCR	37	0	1	96	48	4
TAP	37	0	7
TAP	37	192	0
STR	37	192	6
SCL	37	192	6	96	48	3
STR	38	0	1
SCR	38	0	1	96	48	4
TAP	38	0	7
TAP	38	192	0
TAP	38	192	6
HLD	38	288	5	96
HLD	39	0	7	96
HLD	39	96	0	96
HLD	39	192	2	96
HLD	39	288	0	96
HLD	40	0	7	96
HLD	40	96	5	96
TAP	40	192	2
TAP	40	288	3
TAP	40	288	4
STR	41	0	0
SCR	41	0	0	96	192	7
TAP	41	0	7
TAP	42	0	0
TAP	42	0	7
TAP	42	48	0
TAP	42	48	7
HLD	42	144	1	96
HLD	42	144	6	96
TAP	42	288	1
TAP	42	288	6
TAP	43	0	3
STR	43	0	5
SCR	43	0	5	96	48	0
STR	43	192	2
SCL	43	192	2	96	48	7
TAP	43	192	4
TAP	44	0	3
STR	44	0	5
SCR	44	0	5	96	48	0
TAP	44	192	2
TAP	44	192	4
TAP	44	288	7
TAP	44	336	7
HLD	45	0	0	144
TAP	45	96	2
TAP	45	144	2
TAP	45	240	3
TAP	45	240	4
TAP	45	336	4
TAP	45	336	6
TAP	46	48	0
TAP	46	48	7
TAP	46	96	0
TAP	46	96	7
TAP	46	144	1
TAP	46	144	6
TAP	46	240	3
TAP	46	240	4
TAP	46	288	3
TAP	46	288	4
TAP	47	0	4
TAP	47	0	5
STR	47	96	4
SI_	47	96	4	96	96	0
TAP	47	96	6
HLD	47	192	7	96
TAP	48	0	2
TAP	48	0	3
TAP	48	96	1
STR	48	96	3
SI_	48	96	3	96	96	7
HLD	48	192	0	96
TAP	49	0	0
TAP	49	0	7
STR	49	96	3
SCL	49	96	3	96	96	0
STR	49	96	4
SCR	49	96	4	96	96	7
TAP	50	0	1
TAP	50	0	6
TAP	50	288	3
TAP	50	288	4
HLD	51	0	7	144
HLD	51	144	4	144
HLD	51	288	6	144
TAP	52	48	7
TAP	52	144	6
TAP	52	144	7
TAP	52	192	6
TAP	52	192	7
TAP	52	288	4
TAP	52	288	5
HLD	53	0	6	144
HLD	53	144	5	144
HLD	53	288	4	144
HLD	54	48	5	144
TAP	54	192	7
TAP	54	288	4
TAP	54	288	5
HLD	55	0	7	144
HLD	55	144	5	144
HLD	55	288	4	144
HLD	56	48	5	96
TAP	56	144	6
TAP	56	192	5
TAP	56	288	4
TAP	56	288	7
HLD	57	0	6	144
HLD	57	144	4	144
TAP	57	288	7
TAP	58	48	2
TAP	58	96	2
TAP	58	192	3
TAP	58	240	2
TAP	58	288	1
HLD	59	0	1	144
HLD	59	144	2	144
HLD	59	288	3	144
HLD	60	48	0	144
TAP	60	192	1
TAP	60	288	1
TAP	60	288	2
BRK	61	0	0
STR	61	0	3
SF_	61	0	3	96	144	7
HLD	61	336	1	96
TAP	62	48	0
TAP	62	96	0
TAP	62	192	1
TAP	62	240	2
TAP	62	288	3
TAP	63	0	5
TAP	63	96	4
TAP	63	96	5
TAP	63	192	5
TAP	63	288	4
TAP	63	288	5
TAP	64	0	2
TAP	64	96	2
TAP	64	96	3
TAP	64	192	2
TAP	64	288	2
TAP	64	288	3
STR	65	0	1
SCL	65	0	1	96	96	6
TAP	65	0	4
TAP	65	288	3
TAP	65	288	4
TAP	66	0	3
STR	66	0	6
SCR	66	0	6	96	96	1
TAP	66	288	3
TAP	66	288	4
TAP	67	0	2
TAP	67	0	5
TAP	67	48	2
TAP	67	48	5
TAP	67	144	4
TAP	67	144	6
TAP	67	240	1
TAP	67	240	3
BRK	67	336	0
BRK	67	336	7
TAP	68	192	3
TAP	68	288	4
HLD	69	0	5	384
TAP	69	192	4
TAP	69	288	4
HLD	70	0	2	384
TAP	70	192	3
TAP	70	288	3
HLD	71	0	5	384
TAP	71	192	4
TAP	71	288	4
TAP	72	0	2
TAP	72	96	2
TAP	72	192	3
STR	72	192	4
SCR	72	192	4	96	192	7
TAP	72	288	3
TAP	73	0	3
TAP	73	96	3
STR	73	192	3
SCL	73	192	3	96	192	0
TAP	73	192	4
TAP	73	288	4
TAP	74	0	4
TAP	74	96	4
TAP	74	192	3
TAP	74	192	4
TAP	74	288	3
TAP	74	288	4
TAP	75	0	1
TAP	75	0	6
HLD	75	336	3	96
HLD	75	336	4	96
TAP	76	96	4
TAP	76	96	6
TAP	76	192	3
TAP	76	192	4
TAP	76	288	1
TAP	76	288	3
TAP	77	0	0
TAP	77	0	7
TAP	77	48	0
TAP	77	48	7
TAP	77	288	3
TAP	77	288	4
TAP	78	0	2
STR	78	0	3
SCL	78	0	3	96	48	0
STR	78	192	4
SCR	78	192	4	96	48	7
TAP	78	192	5
TAP	79	0	2
STR	79	0	3
SCL	79	0	3	96	48	0
TAP	79	192	4
TAP	79	192	5
TAP	79	288	6
TAP	79	336	6
TAP	80	0	6
STR	80	0	7
SCL	80	0	7	96	48	4
STR	80	192	0
SCR	80	192	0	96	48	3
TAP	80	192	1
TAP	81	0	6
STR	81	0	7
SCL	81	0	7	96	48	4
TAP	81	192	0
TAP	81	192	1
HLD	81	288	1	96
HLD	82	0	3	96
HLD	82	96	4	96
HLD	82	192	6	96
HLD	82	288	4	96
HLD	83	0	3	96
HLD	83	96	1	96
TAP	83	192	6
TAP	83	288	0
TAP	83	288	7
TAP	84	0	3
STR	84	0	4
SCR	84	0	4	96	192	3
TAP	85	0	0
TAP	85	0	7
TAP	85	48	0
TAP	85	48	7
HLD	85	144	1	96
HLD	85	144	6	96
TAP	85	288	1
TAP	85	288	6
STR	86	0	4
SCR	86	0	4	96	48	7
TAP	86	0	5
TAP	86	192	2
STR	86	192	3
SCL	86	192	3	96	48	0
STR	87	0	4
SCR	87	0	4	96	48	7
TAP	87	0	5
TAP	87	192	2
TAP	87	192	3
TAP	87	288	0
TAP	87	336	0
HLD	88	0	7	144
TAP	88	96	5
TAP	88	144	5
TAP	88	240	3
TAP	88	240	4
TAP	88	336	1
TAP	88	336	3
TAP	89	48	0
TAP	89	48	7
TAP	89	96	0
TAP	89	96	7
TAP	89	144	1
TAP	89	144	6
TAP	89	240	3
TAP	89	240	4
TAP	89	288	3
TAP	89	288	4
TAP	90	0	2
TAP	90	0	3
TAP	90	96	1
STR	90	96	3
SCR	90	96	3	96	96	7
HLD	90	192	0	96
TAP	91	0	4
TAP	91	0	5
STR	91	96	4
SCL	91	96	4	96	96	0
TAP	91	96	6
HLD	91	192	7	96
TAP	92	0	3
TAP	92	0	4
STR	92	96	0
SCR	92	96	0	96	96	3
STR	92	96	7
SCL	92	96	7	96	96	4
BRK	93	0	6
HLD	93	0	7	192
TAP	93	288	3
TAP	93	288	4
TAP	94	0	2
TAP	94	96	1
TAP	94	96	3
TAP	94	192	5
TAP	94	288	4
TAP	94	288	6
TAP	95	0	2
TAP	95	96	1
TAP	95	96	3
TAP	95	192	6
TAP	95	288	5
TAP	95	288	7
HLD	96	0	1	144
TAP	96	96	0
TAP	96	144	0
TAP	96	240	2
STR	96	240	3
SCR	96	240	3	96	144	1
TAP	97	192	3
TAP	97	192	4
TAP	97	288	4
TAP	97	288	5
TAP	98	0	2
TAP	98	0	4
TAP	98	96	3
TAP	98	192	1
TAP	98	240	1
TAP	98	288	0
TAP	99	0	3
TAP	99	0	5
TAP	99	96	4
TAP	99	192	6
TAP	99	240	6
TAP	99	288	7
TAP	100	0	4
TAP	100	0	5
TAP	100	96	3
TAP	100	96	6
TAP	100	192	2
TAP	100	192	3
TAP	100	288	1
TAP	100	288	4
STR	100	336	1
SCL	100	336	1	96	96	6
TAP	100	336	4
TAP	101	192	3
TAP	101	192	4
TAP	101	288	0
TAP	101	288	7
TAP	102	0	4
TAP	102	48	4
TAP	102	96	3
BRK	102	192	1
BRK	102	192	6

T_REC_TAP	362
T_REC_BRK	7
T_REC_XTP	0
T_REC_HLD	58
T_REC_XHO	0
T_REC_STR	48
T_REC_BST	0
T_REC_XST	0
T_REC_TTP	0
T_REC_THO	0
T_REC_SLD	48
T_REC_ALL	523
T_NUM_TAP	410
T_NUM_BRK	7
T_NUM_HLD	58
T_NUM_SLD	48
T_NUM_ALL	523
T_JUDGE_TAP	417
T_JUDGE_HLD	222
T_JUDGE_SLD	48
T_JUDGE_ALL	687
TTM_EACHPAIRS	150
TTM_SCR_TAP	205000
TTM_SCR_BRK	18200
TTM_SCR_HLD	58000
TTM_SCR_SLD	72000
TTM_SCR_ALL	353200
TTM_SCR_S	341950
TTM_SCR_SS	352500
TTM_RAT_ACV	10019

