VERSION	0.00.00	1.03.00
FES_MODE	0
BPM_DEF	176.000	176.000	176.000	176.000
MET_DEF	4	4
RESOLUTION	384
CLK_DEF	384
COMPATIBLE_CODE	MA2

BPM	0	0	176.000
MET	0	0	4	4
MET	102	0	4	2
MET	102	192	4	4

TAP	2	0	5
TAP	2	96	5
TAP	2	192	4
TAP	2	288	4
TAP	3	0	3
TAP	3	96	3
TAP	3	192	2
TAP	3	288	2
STR	4	0	2
SCL	4	0	2	96	480	5
TAP	4	0	3
TAP	6	0	6
TAP	6	96	6
TAP	6	192	7
TAP	7	0	1
TAP	7	96	1
TAP	7	192	0
TAP	8	0	6
TAP	8	96	6
TAP	8	192	7
TAP	8	288	7
TAP	9	0	0
TAP	9	96	7
TAP	9	192	0
TAP	9	192	7
HLD	10	0	5	384
HLD	11	0	4	384
HLD	12	0	3	384
TAP	13	0	2
HLD	14	0	2	384
HLD	15	0	3	384
HLD	16	0	4	384
TAP	17	0	5
TAP	17	192	3
TAP	17	192	4
HLD	18	0	5	192
TAP	18	192	4
HLD	19	0	2	192
TAP	19	192	3
HLD	20	0	5	192
TAP	20	192	4
HLD	21	0	3	192
TAP	21	192	4
HLD	22	0	2	192
TAP	22	192	3
HLD	23	0	5	192
TAP	23	192	4
HLD	24	0	3	192
TAP	24	192	4
TAP	25	0	2
TAP	25	0	5
TAP	25	192	3
TAP	25	192	4
TAP	26	0	5
TAP	26	96	5
TAP	26	192	4
TAP	27	0	3
TAP	27	96	3
TAP	27	192	3
TAP	27	192	4
TAP	28	0	2
TAP	28	96	2
TAP	28	192	3
TAP	29	0	4
TAP	29	96	4
TAP	29	192	3
TAP	29	192	4
STR	30	0	3
SXR	30	0	3	96	480	0
STR	30	0	4
SXL	30	0	4	96	480	7
HLD	32	0	0	192
HLD	32	0	7	192
TAP	33	0	7
TAP	33	96	7
TAP	33	192	0
TAP	33	288	0
BRK	34	0	1
BRK	34	0	6
TAP	35	0	1
TAP	35	96	1
TAP	35	192	0
TAP	35	288	0
TAP	36	0	1
TAP	36	96	0
TAP	36	192	2
TAP	36	192	7
TAP	37	0	6
TAP	37	96	6
TAP	37	192	7
TAP	37	288	7
TAP	38	0	6
TAP	38	96	7
TAP	38	192	0
TAP	38	192	5
TAP	39	0	5
TAP	39	96	4
TAP	39	192	3
TAP	39	192	6
TAP	40	0	2
TAP	40	96	3
TAP	40	192	1
TAP	40	192	4
TAP	41	0	4
TAP	41	96	4
TAP	41	192	3
TAP	41	288	3
HLD	42	0	3	96
HLD	42	0	4	96
TAP	42	192	2
TAP	42	192	5
TAP	43	0	1
TAP	43	96	0
TAP	43	192	2
TAP	43	192	7
TAP	44	0	6
TAP	44	96	7
TAP	44	192	0
TAP	44	192	5
STR	45	0	3
SI_	45	0	3	96	288	0
STR	45	0	4
SI_	45	0	4	96	288	7
TAP	46	192	1
TAP	46	192	6
TAP	47	0	4
TAP	47	96	5
TAP	47	192	6
TAP	47	192	7
TAP	48	0	3
TAP	48	96	2
TAP	48	192	0
TAP	48	192	1
TAP	49	0	7
TAP	49	96	7
TAP	49	192	0
TAP	49	288	0
STR	50	0	0
SI_	50	0	0	96	192	3
STR	50	0	7
SI_	50	0	7	96	192	4
TAP	51	0	2
TAP	51	96	2
TAP	51	192	3
TAP	51	288	3
TAP	52	0	4
TAP	52	96	5
TAP	52	192	4
TAP	52	192	5
TAP	53	0	5
TAP	53	96	5
TAP	53	192	4
TAP	53	288	4
TAP	54	0	3
TAP	54	96	2
TAP	54	192	2
TAP	54	192	3
TAP	55	0	1
TAP	55	96	1
TAP	55	192	0
TAP	55	288	0
TAP	56	0	7
TAP	56	96	6
TAP	56	192	6
TAP	56	192	7
TAP	57	0	6
TAP	57	96	6
TAP	57	192	7
TAP	57	288	7
TAP	58	0	0
TAP	58	96	7
TAP	58	192	1
TAP	58	192	6
HLD	59	0	5	192
TAP	59	96	4
TAP	59	192	4
HLD	60	0	2	192
TAP	60	96	3
TAP	60	192	3
TAP	61	0	3
STR	61	0	4
SSL	61	0	4	96	288	0
TAP	62	192	1
TAP	62	192	7
TAP	63	0	2
TAP	63	96	2
TAP	63	96	3
TAP	63	192	2
TAP	63	288	2
TAP	63	288	3
TAP	64	0	5
TAP	64	96	4
TAP	64	96	5
TAP	64	192	5
TAP	64	288	4
TAP	64	288	5
TAP	65	0	2
TAP	65	96	2
TAP	65	96	3
TAP	65	192	5
TAP	65	288	4
TAP	65	288	5
TAP	66	0	3
TAP	66	0	4
TAP	66	96	3
TAP	66	96	4
TAP	66	192	2
TAP	66	192	5
STR	67	0	2
SLL	67	0	2	96	480	3
STR	67	0	5
SLR	67	0	5	96	480	4
TAP	69	0	2
TAP	69	96	2
TAP	69	192	2
TAP	69	192	3
TAP	70	0	4
TAP	70	96	3
TAP	70	192	3
TAP	70	192	4
TAP	71	0	5
TAP	71	96	5
TAP	71	192	4
TAP	71	192	5
TAP	72	0	3
TAP	72	96	4
TAP	72	192	3
TAP	72	192	4
STR	73	0	3
SXR	73	0	3	96	480	0
STR	73	0	4
SXL	73	0	4	96	480	7
HLD	75	0	0	192
HLD	75	0	7	192
TAP	76	0	0
TAP	76	96	0
TAP	76	192	7
TAP	76	288	7
BRK	77	0	1
BRK	77	0	6
TAP	78	0	1
TAP	78	96	1
TAP	78	192	0
TAP	78	288	0
TAP	79	0	1
TAP	79	96	0
TAP	79	96	1
TAP	79	192	2
TAP	79	192	7
TAP	80	0	6
TAP	80	96	6
TAP	80	192	7
TAP	80	288	7
TAP	81	0	6
TAP	81	96	6
TAP	81	96	7
TAP	81	192	0
TAP	81	192	5
TAP	82	0	2
TAP	82	96	2
TAP	82	96	3
TAP	82	192	1
TAP	82	192	4
TAP	83	0	5
TAP	83	96	4
TAP	83	96	5
TAP	83	192	3
TAP	83	192	6
TAP	84	0	3
TAP	84	96	3
TAP	84	192	4
TAP	84	288	3
HLD	85	0	3	96
HLD	85	0	4	96
TAP	85	192	2
TAP	85	192	5
TAP	86	0	0
TAP	86	0	1
TAP	86	96	0
TAP	86	96	1
TAP	86	192	2
TAP	86	192	7
TAP	87	0	6
TAP	87	0	7
TAP	87	96	6
TAP	87	96	7
TAP	87	192	0
TAP	87	192	5
STR	88	0	3
SCL	88	0	3	96	288	0
STR	88	0	4
SCR	88	0	4	96	288	7
TAP	89	192	1
TAP	89	192	6
TAP	90	0	3
TAP	90	96	2
TAP	90	192	0
TAP	90	192	1
TAP	91	0	4
TAP	91	96	5
TAP	91	192	6
TAP	91	192	7
TAP	92	0	0
TAP	92	96	0
TAP	92	192	7
TAP	92	288	7
STR	93	0	0
SCR	93	0	0	96	192	3
STR	93	0	7
SCL	93	0	7	96	192	4
TAP	94	0	2
TAP	94	96	2
TAP	94	192	3
TAP	94	288	3
TAP	95	0	4
TAP	95	96	4
TAP	95	192	5
TAP	95	288	5
TAP	96	0	4
STR	96	0	5
SCR	96	0	5	96	288	2
TAP	97	192	3
TAP	97	192	4
TAP	98	0	5
TAP	98	96	5
TAP	98	192	4
TAP	98	288	4
TAP	99	0	5
TAP	99	96	4
TAP	99	96	5
TAP	99	192	3
TAP	99	192	6
TAP	100	0	2
TAP	100	96	2
TAP	100	192	3
TAP	100	288	3
TAP	101	0	2
TAP	101	96	2
TAP	101	96	3
TAP	101	192	1
TAP	101	192	4
TAP	102	0	2
TAP	102	0	5
TAP	102	96	3
TAP	102	96	4
BRK	102	192	1
BRK	102	192	6

T_REC_TAP	284
T_REC_BRK	6
T_REC_XTP	0
T_REC_HLD	23
T_REC_XHO	0
T_REC_STR	17
T_REC_BST	0
T_REC_XST	0
T_REC_TTP	0
T_REC_THO	0
T_REC_SLD	17
T_REC_ALL	347
T_NUM_TAP	301
T_NUM_BRK	6
T_NUM_HLD	23
T_NUM_SLD	17
T_NUM_ALL	347
T_JUDGE_TAP	307
T_JUDGE_HLD	108
T_JUDGE_SLD	17
T_JUDGE_ALL	432
TTM_EACHPAIRS	76
TTM_SCR_TAP	150500
TTM_SCR_BRK	15600
TTM_SCR_HLD	23000
TTM_SCR_SLD	25500
TTM_SCR_ALL	214600
TTM_SCR_S	207600
TTM_SCR_SS	214000
TTM_RAT_ACV	10028

