VERSION	0.00.00	1.03.00
FES_MODE	0
BPM_DEF	176.000	176.000	176.000	176.000
MET_DEF	4	4
RESOLUTION	384
CLK_DEF	384
COMPATIBLE_CODE	MA2

BPM	0	0	176.000
MET	0	0	4	4
MET	102	0	4	2
MET	102	192	4	4

TAP	2	0	0
TAP	2	192	0
TAP	3	0	1
TAP	3	96	1
TAP	3	192	1
TAP	4	0	2
TAP	4	192	2
TAP	5	0	3
TAP	5	96	3
TAP	5	192	3
TAP	5	192	4
TAP	6	0	4
TAP	6	192	4
TAP	7	0	5
TAP	7	96	5
TAP	7	192	4
TAP	7	192	5
TAP	8	0	6
TAP	8	192	6
TAP	9	0	7
TAP	9	96	7
TAP	9	192	0
TAP	9	192	7
STR	10	0	0
SI_	10	0	0	96	288	3
STR	12	0	7
SI_	12	0	7	96	288	4
STR	14	0	0
SI_	14	0	0	96	288	5
STR	16	0	7
SI_	16	0	7	96	288	2
HLD	18	0	0	384
HLD	20	0	1	384
HLD	22	0	2	384
HLD	24	0	3	384
TAP	26	0	4
TAP	26	192	4
TAP	27	0	4
TAP	27	0	5
TAP	27	192	4
TAP	27	192	5
TAP	28	0	6
TAP	28	192	6
TAP	29	0	6
TAP	29	0	7
TAP	29	192	6
TAP	29	192	7
TAP	30	0	0
TAP	30	96	0
TAP	30	192	0
TAP	31	0	7
TAP	31	96	7
TAP	31	192	7
TAP	32	0	0
TAP	32	0	7
TAP	33	0	0
TAP	33	0	7
TAP	33	96	0
TAP	33	96	7
TAP	33	192	0
TAP	33	192	7
BRK	34	0	0
BRK	34	0	7
TAP	35	0	0
TAP	35	96	0
TAP	35	192	0
TAP	36	0	1
TAP	36	96	1
TAP	36	192	1
TAP	37	0	2
TAP	37	96	2
TAP	37	192	2
TAP	38	0	3
TAP	38	96	3
TAP	38	192	3
TAP	38	192	4
TAP	39	0	4
TAP	39	96	4
TAP	39	192	4
TAP	40	0	5
TAP	40	96	5
TAP	40	192	5
TAP	41	0	6
TAP	41	96	6
TAP	41	192	6
TAP	42	0	7
TAP	42	96	7
TAP	42	192	0
TAP	42	192	7
TAP	43	0	6
TAP	43	96	6
TAP	43	192	6
TAP	44	0	5
TAP	44	96	5
TAP	44	192	5
TAP	45	0	4
TAP	45	96	4
TAP	45	192	4
TAP	46	0	3
TAP	46	96	3
TAP	46	192	3
TAP	46	192	4
TAP	47	0	2
TAP	47	96	2
TAP	47	192	2
TAP	48	0	1
TAP	48	96	1
TAP	48	192	1
TAP	49	0	0
TAP	49	96	0
TAP	49	192	0
TAP	50	0	7
TAP	50	96	7
TAP	50	192	0
TAP	50	192	7
STR	51	0	6
SI_	51	0	6	96	288	2
STR	53	0	1
SI_	53	0	1	96	288	5
STR	55	0	6
SI_	55	0	6	96	288	3
STR	57	0	1
SI_	57	0	1	96	288	4
HLD	59	0	6	384
HLD	59	0	7	384
HLD	61	0	4	384
HLD	61	0	5	384
HLD	63	0	2	384
HLD	63	0	3	384
HLD	65	0	0	384
HLD	65	0	1	384
TAP	67	0	0
TAP	67	0	7
TAP	67	192	0
TAP	67	192	7
BRK	68	0	0
BRK	68	0	7
STR	69	0	7
SI_	69	0	7	96	288	4
STR	71	0	0
SI_	71	0	0	96	288	3
STR	73	0	4
SI_	73	0	4	96	288	7
STR	75	0	3
SI_	75	0	3	96	288	0
BRK	77	0	7
TAP	78	0	0
TAP	78	96	0
TAP	78	192	0
TAP	79	0	1
TAP	79	96	1
TAP	79	192	1
TAP	80	0	2
TAP	80	96	2
TAP	80	192	2
TAP	81	0	3
TAP	81	0	4
TAP	81	96	3
TAP	81	96	4
TAP	81	192	3
TAP	81	192	4
TAP	82	0	4
TAP	82	96	4
TAP	82	192	4
TAP	83	0	5
TAP	83	96	5
TAP	83	192	5
TAP	84	0	6
TAP	84	96	6
TAP	84	192	6
TAP	85	0	0
TAP	85	0	7
TAP	85	96	0
TAP	85	96	7
TAP	85	192	0
TAP	85	192	7
TAP	86	0	6
TAP	86	96	6
TAP	86	192	6
TAP	87	0	5
TAP	87	96	5
TAP	87	192	5
TAP	88	0	4
TAP	88	96	4
TAP	88	192	4
TAP	89	0	3
TAP	89	0	4
TAP	89	96	3
TAP	89	96	4
TAP	89	192	3
TAP	89	192	4
TAP	90	0	2
TAP	90	96	2
TAP	90	192	2
TAP	91	0	1
TAP	91	96	1
TAP	91	192	1
TAP	92	0	0
TAP	92	96	0
TAP	92	192	0
TAP	93	0	0
TAP	93	0	7
TAP	93	96	0
TAP	93	96	7
TAP	93	192	0
TAP	93	192	7
TAP	94	0	1
TAP	94	96	1
TAP	94	192	1
TAP	95	0	2
TAP	95	96	2
TAP	95	192	2
TAP	96	0	3
TAP	96	96	3
TAP	96	192	3
TAP	97	0	4
TAP	97	96	3
TAP	97	192	3
TAP	97	192	4
TAP	98	0	5
TAP	98	96	5
TAP	98	192	5
TAP	99	0	6
TAP	99	96	6
TAP	99	192	6
TAP	100	0	7
TAP	100	96	7
TAP	100	192	7
TAP	101	0	0
TAP	101	96	7
TAP	101	192	0
TAP	101	192	7
STR	102	192	0
SI_	102	192	0	96	288	3
STR	102	192	7
SI_	102	192	7	96	288	4

T_REC_TAP	191
T_REC_BRK	5
T_REC_XTP	0
T_REC_HLD	12
T_REC_XHO	0
T_REC_STR	14
T_REC_BST	0
T_REC_XST	0
T_REC_TTP	0
T_REC_THO	0
T_REC_SLD	14
T_REC_ALL	236
T_NUM_TAP	205
T_NUM_BRK	5
T_NUM_HLD	12
T_NUM_SLD	14
T_NUM_ALL	236
T_JUDGE_TAP	210
T_JUDGE_HLD	96
T_JUDGE_SLD	14
T_JUDGE_ALL	320
TTM_EACHPAIRS	38
TTM_SCR_TAP	102500
TTM_SCR_BRK	13000
TTM_SCR_HLD	12000
TTM_SCR_SLD	21000
TTM_SCR_ALL	148500
TTM_SCR_S	143600
TTM_SCR_SS	148000
TTM_RAT_ACV	10033

