VERSION	0.00.00	1.03.00
FES_MODE	0
BPM_DEF	190.000	190.000	190.000	190.000
MET_DEF	4	4
RESOLUTION	384
CLK_DEF	384
COMPATIBLE_CODE	MA2

BPM	0	0	190.000
MET	0	0	4	4

TAP	1	0	5
TAP	1	96	4
TAP	1	192	3
TAP	1	288	2
TAP	1	336	3
TAP	2	48	5
HLD	2	96	4	96
HLD	2	192	3	96
TAP	2	288	2
TAP	3	0	3
TAP	3	96	4
TAP	3	192	5
TAP	3	288	6
TAP	3	336	7
TAP	4	48	1
STR	4	96	0
SF_	4	96	0	96	96	4
HLD	5	0	3	96
HLD	5	0	5	96
TAP	5	144	3
TAP	5	144	5
HLD	5	288	1	96
HLD	5	288	7	96
TAP	6	48	1
TAP	6	48	7
TAP	6	192	1
TAP	6	192	5
TAP	6	216	6
TAP	6	240	7
TAP	6	264	0
TAP	6	288	1
TAP	6	312	2
TAP	6	336	3
TAP	6	360	4
TAP	7	0	1
TAP	7	0	5
TAP	7	96	6
TAP	7	144	6
TAP	7	192	7
TAP	7	240	6
TAP	7	288	0
TAP	7	336	6
STR	8	0	1
SLR	8	0	1	96	144	5
TAP	8	96	0
TAP	8	192	7
TAP	8	288	6
TAP	9	0	1
TAP	9	0	7
TAP	9	96	1
TAP	9	144	1
TAP	9	192	0
TAP	9	240	1
TAP	9	288	7
TAP	9	336	1
STR	10	0	6
SLL	10	0	6	96	144	2
TAP	10	96	7
TAP	10	192	0
TAP	10	288	1
TAP	11	0	1
HLD	11	0	4	96
TAP	11	96	3
TAP	11	144	2
TAP	11	192	0
TAP	11	192	1
HLD	11	288	3	96
TAP	11	288	6
TAP	12	0	4
TAP	12	48	5
TAP	12	96	6
TAP	12	96	7
TAP	12	192	0
TAP	12	192	2
TAP	12	288	4
TAP	12	288	6
HLD	13	0	3	96
TAP	13	0	7
TAP	13	96	5
TAP	13	144	6
TAP	13	192	0
TAP	13	192	7
STR	13	240	1
SCR	13	240	1	96	96	6
TAP	13	240	6
TAP	13	336	1
TAP	13	336	6
TAP	14	144	0
TAP	14	144	7
TAP	14	240	1
TAP	14	288	5
TAP	14	336	2
TAP	15	0	3
TAP	15	0	4
TAP	15	96	3
TAP	15	96	6
TAP	15	144	5
TAP	15	168	4
TAP	15	192	5
TAP	15	240	3
TAP	15	288	6
BST	15	336	6
SI_	15	336	6	96	48	2
BST	15	336	7
SI_	15	336	7	96	48	2
BRK	16	48	6
BRK	16	48	7
BRK	16	144	0
BST	16	144	1
SCR	16	144	1	96	48	5
BRK	16	240	1
BRK	16	240	5
TAP	17	0	2
TAP	17	0	5
TAP	17	96	2
TAP	17	96	3
TAP	17	144	3
TAP	17	192	2
TAP	17	192	3
TAP	17	288	2
TAP	17	288	4
TAP	18	0	2
TAP	18	0	5
TAP	18	96	2
TAP	18	96	4
TAP	18	192	2
TAP	18	192	5
TAP	18	288	2
TAP	18	288	6
TAP	19	0	2
TAP	19	0	4
TAP	19	96	2
STR	19	96	3
SCR	19	96	3	96	384	7
TAP	19	192	2
TAP	19	288	2
TAP	20	0	2
TAP	20	96	2
TAP	20	192	2
TAP	20	288	2
TAP	21	0	2
TAP	21	0	5
TAP	21	96	2
TAP	21	96	4
TAP	21	144	4
TAP	21	192	2
TAP	21	192	4
TAP	21	288	2
TAP	21	288	6
TAP	22	0	2
TAP	22	0	6
TAP	22	96	2
TAP	22	96	5
TAP	22	192	2
TAP	22	192	6
TAP	22	288	2
TAP	22	288	7
STR	23	0	0
SCL	23	0	0	96	288	4
TAP	23	0	2
TAP	23	96	2
TAP	23	192	2
TAP	23	288	2
TAP	24	0	2
TAP	24	96	2
TAP	24	192	2
TAP	24	288	2
TAP	24	288	4
TAP	25	0	3
TAP	25	0	5
TAP	25	96	4
TAP	25	96	5
TAP	25	144	4
TAP	25	192	4
TAP	25	192	5
TAP	25	288	3
TAP	25	288	5
TAP	26	0	3
TAP	26	0	5
TAP	26	96	3
TAP	26	96	5
TAP	26	192	2
TAP	26	192	5
TAP	26	288	1
TAP	26	288	5
STR	27	0	3
SXR	27	0	3	96	384	7
TAP	27	0	5
TAP	27	96	5
TAP	27	192	5
TAP	27	288	5
TAP	28	0	5
TAP	28	96	5
TAP	28	192	0
TAP	28	192	5
TAP	28	288	1
TAP	28	288	5
TAP	29	0	2
TAP	29	0	5
TAP	29	96	3
TAP	29	96	5
TAP	29	144	3
TAP	29	192	3
TAP	29	192	5
TAP	29	288	2
TAP	29	288	5
TAP	30	0	2
TAP	30	0	5
TAP	30	96	0
TAP	30	96	5
TAP	30	192	1
TAP	30	192	5
TAP	30	288	2
TAP	30	288	5
TAP	31	0	3
TAP	31	0	5
TAP	31	96	1
TAP	31	96	5
TAP	31	192	2
TAP	31	192	5
TAP	31	288	2
TAP	31	288	5
TAP	32	0	3
TAP	32	0	5
TAP	32	96	3
TAP	32	96	5
TAP	32	192	6
TAP	32	240	6
TAP	32	288	4
TAP	32	336	5
TAP	33	0	4
HLD	33	0	6	192
HLD	33	192	0	144
STR	33	336	2
SUR	33	336	2	96	96	7
TAP	34	192	0
TAP	34	240	1
TAP	34	240	7
TAP	34	288	2
TAP	34	288	6
TAP	35	0	4
TAP	35	0	5
TAP	35	96	6
TAP	35	96	7
TAP	35	192	0
TAP	35	192	1
TAP	35	288	2
TAP	35	336	3
TAP	36	48	5
TAP	36	96	4
TAP	36	192	4
TAP	36	192	6
TAP	36	288	0
TAP	36	288	7
HLD	37	0	1	192
TAP	37	0	3
HLD	37	192	7	144
STR	37	336	5
SUL	37	336	5	96	96	0
TAP	38	192	7
TAP	38	240	0
TAP	38	240	6
TAP	38	288	1
TAP	38	288	5
TAP	39	0	2
TAP	39	0	3
TAP	39	96	5
TAP	39	144	4
TAP	39	240	2
STR	39	288	3
SCL	39	288	3	96	96	6
TAP	40	192	0
TAP	40	192	1
TAP	40	288	2
TAP	40	288	7
HLD	41	0	2	192
HLD	41	192	4	192
STR	42	0	6
SUL	42	0	6	96	144	2
STR	43	0	1
SI_	43	0	1	96	48	5
STR	43	48	0
SCL	43	48	0	96	48	5
STR	43	96	1
SCR	43	96	1	96	72	4
TAP	43	144	0
TAP	43	192	1
STR	43	288	6
SXL	43	288	6	96	144	3
TAP	43	336	6
TAP	44	96	2
TAP	44	192	1
STR	44	288	1
SCL	44	288	1	96	96	5
STR	45	0	5
SCL	45	0	5	96	96	1
TAP	45	144	7
STR	45	192	7
SI_	45	192	7	96	48	3
SV_	45	192	7	96	48	2
TAP	45	288	7
HLD	46	0	1	96
HLD	46	96	0	96
TAP	46	192	7
TAP	46	288	6
TAP	46	288	7
TAP	47	0	0
TAP	47	0	1
TAP	47	48	1
STR	47	96	1
SI_	47	96	1	96	48	4
TAP	47	96	2
TAP	47	144	1
TAP	47	192	1
TAP	47	192	7
TAP	47	288	6
TAP	47	288	7
TAP	47	336	6
TAP	48	0	5
STR	48	0	6
SI_	48	0	6	96	48	3
TAP	48	48	6
STR	48	96	0
SI_	48	96	0	96	48	4
TAP	48	96	6
STR	48	192	4
SI_	48	192	4	96	48	0
TAP	49	0	6
TAP	49	0	7
TAP	49	48	6
TAP	49	96	5
STR	49	96	6
SI_	49	96	6	96	48	3
TAP	49	144	6
TAP	49	192	0
TAP	49	192	6
TAP	49	288	0
TAP	49	288	7
TAP	49	336	0
STR	50	0	0
SI_	50	0	0	96	48	3
TAP	50	0	2
TAP	50	48	0
STR	50	96	0
SI_	50	96	0	96	48	5
TAP	50	96	6
TAP	50	192	0
TAP	50	288	0
TAP	50	288	4
STR	51	0	6
SI_	51	0	6	96	48	2
STR	51	48	7
SCR	51	48	7	96	48	2
STR	51	96	6
SCL	51	96	6	96	72	3
TAP	51	144	7
TAP	51	192	6
STR	51	288	1
SXR	51	288	1	96	144	4
TAP	51	336	1
TAP	52	96	5
TAP	52	192	6
STR	52	288	6
SCR	52	288	6	96	96	2
STR	53	0	2
SCR	53	0	2	96	96	6
TAP	53	144	0
STR	53	192	0
SI_	53	192	0	96	48	4
SV_	53	192	0	96	48	3
TAP	53	288	0
HLD	54	0	6	96
HLD	54	96	7	96
TAP	54	192	0
TAP	54	288	0
TAP	54	288	1
TAP	55	0	6
TAP	55	0	7
TAP	55	48	6
TAP	55	96	5
STR	55	96	6
SI_	55	96	6	96	48	3
TAP	55	144	6
TAP	55	192	0
TAP	55	192	6
TAP	55	288	0
TAP	55	288	1
TAP	55	336	1
STR	56	0	1
SI_	56	0	1	96	48	4
TAP	56	0	2
TAP	56	48	1
TAP	56	96	1
STR	56	96	7
SI_	56	96	7	96	48	3
STR	56	192	3
SI_	56	192	3	96	48	7
TAP	57	0	0
TAP	57	0	1
TAP	57	48	1
STR	57	96	1
SI_	57	96	1	96	48	4
TAP	57	96	2
TAP	57	144	1
TAP	57	192	1
TAP	57	192	7
TAP	57	288	0
TAP	57	288	7
TAP	57	336	7
TAP	58	0	5
STR	58	0	7
SI_	58	0	7	96	48	3
TAP	58	48	7
TAP	58	96	1
STR	58	96	7
SCR	58	96	7	96	48	2
TAP	58	192	7
BRK	58	288	7
STR	59	0	6
SI_	59	0	6	96	48	3
TAP	59	0	7
TAP	59	96	3
TAP	59	96	6
TAP	59	192	2
TAP	59	240	3
TAP	59	288	2
TAP	59	336	1
TAP	60	0	0
STR	60	0	1
SI_	60	0	1	96	48	4
TAP	60	96	1
TAP	60	96	4
TAP	60	192	5
TAP	60	240	4
TAP	60	288	5
TAP	60	336	6
STR	61	0	3
SI_	61	0	3	96	48	7
STR	61	0	6
SI_	61	0	6	96	48	3
TAP	61	96	3
TAP	61	96	6
STR	61	192	0
SI_	61	192	0	96	48	3
STR	61	192	4
SI_	61	192	4	96	48	0
TAP	61	288	0
TAP	61	288	4
STR	62	0	2
SI_	62	0	2	96	48	7
STR	62	0	6
SI_	62	0	6	96	48	3
TAP	62	96	2
TAP	62	96	6
STR	62	192	0
SCR	62	192	0	96	336	7
SUR	62	192	0	96	336	7
STR	64	0	0
SCR	64	0	0	96	96	3
TAP	64	0	5
STR	64	96	3
SCR	64	96	3	96	96	6
STR	64	192	6
SCR	64	192	6	96	96	1
TAP	64	288	1
TAP	65	0	4
TAP	65	96	2
TAP	65	144	2
TAP	65	192	1
TAP	65	240	2
TAP	65	288	0
TAP	65	336	2
HLD	66	0	7	96
HLD	66	96	0	96
TAP	66	192	1
TAP	66	288	0
TAP	66	288	1
TAP	67	0	6
TAP	67	0	7
TAP	67	48	6
TAP	67	96	5
STR	67	96	6
SI_	67	96	6	96	48	3
TAP	67	144	6
TAP	67	192	0
TAP	67	192	6
TAP	67	288	0
TAP	67	288	1
TAP	67	336	1
STR	68	0	1
SI_	68	0	1	96	48	4
TAP	68	0	2
TAP	68	48	1
TAP	68	96	1
STR	68	96	7
SI_	68	96	7	96	48	3
STR	68	192	3
SI_	68	192	3	96	48	7
TAP	69	0	0
TAP	69	0	1
TAP	69	48	1
STR	69	96	1
SI_	69	96	1	96	48	4
TAP	69	96	2
TAP	69	144	1
TAP	69	192	1
TAP	69	192	7
TAP	69	288	0
TAP	69	288	7
TAP	69	336	7
TAP	70	0	5
STR	70	0	7
SI_	70	0	7	96	48	4
TAP	70	48	7
TAP	70	96	1
STR	70	96	7
SI_	70	96	7	96	48	2
TAP	70	192	7
TAP	70	288	3
TAP	70	288	7
STR	71	0	1
SI_	71	0	1	96	48	5
STR	71	48	0
SCL	71	48	0	96	48	5
STR	71	96	1
SCR	71	96	1	96	72	4
TAP	71	144	0
TAP	71	192	1
STR	71	288	6
SXL	71	288	6	96	144	3
TAP	71	336	6
TAP	72	96	2
TAP	72	192	1
STR	72	288	1
SCL	72	288	1	96	96	5
STR	73	0	5
SCL	73	0	5	96	96	1
TAP	73	144	7
STR	73	192	7
SI_	73	192	7	96	48	3
SV_	73	192	7	96	48	5
TAP	73	288	7
HLD	74	0	1	96
HLD	74	96	0	96
TAP	74	192	7
TAP	74	288	6
TAP	74	288	7
TAP	75	0	0
TAP	75	0	1
TAP	75	48	1
STR	75	96	1
SI_	75	96	1	96	48	4
TAP	75	96	2
TAP	75	144	1
TAP	75	192	1
TAP	75	192	7
TAP	75	288	6
TAP	75	288	7
TAP	75	336	6
TAP	76	0	5
STR	76	0	6
SI_	76	0	6	96	48	3
TAP	76	48	6
STR	76	96	0
SI_	76	96	0	96	48	4
TAP	76	96	6
STR	76	192	4
SI_	76	192	4	96	48	0
TAP	77	0	6
TAP	77	0	7
TAP	77	48	6
TAP	77	96	5
STR	77	96	6
SI_	77	96	6	96	48	3
TAP	77	144	6
TAP	77	192	0
TAP	77	192	6
TAP	77	288	0
TAP	77	288	7
TAP	77	336	0
STR	78	0	0
SI_	78	0	0	96	48	4
TAP	78	0	2
TAP	78	48	0
STR	78	96	0
SCL	78	96	0	96	48	5
TAP	78	96	6
TAP	78	192	0
BRK	78	288	0
TAP	79	0	0
STR	79	0	1
SI_	79	0	1	96	48	4
TAP	79	96	1
TAP	79	96	4
TAP	79	192	5
TAP	79	240	4
TAP	79	288	5
TAP	79	336	6
STR	80	0	6
SI_	80	0	6	96	48	3
TAP	80	0	7
TAP	80	96	3
TAP	80	96	6
TAP	80	192	2
TAP	80	240	3
TAP	80	288	2
TAP	80	336	1
STR	81	0	1
SI_	81	0	1	96	48	4
STR	81	0	4
SI_	81	0	4	96	48	0
TAP	81	96	1
TAP	81	96	4
STR	81	192	3
SI_	81	192	3	96	48	7
STR	81	192	7
SI_	81	192	7	96	48	4
TAP	81	288	3
TAP	81	288	7
STR	82	0	1
SI_	82	0	1	96	48	6
STR	82	0	5
SI_	82	0	5	96	48	2
TAP	82	96	1
TAP	82	96	5
TAP	82	192	0
TAP	82	192	4
BRK	82	288	2
BRK	82	288	6
STR	83	0	6
SI_	83	0	6	96	48	2
TAP	83	0	7
TAP	83	96	2
TAP	83	96	6
TAP	83	192	3
TAP	83	240	4
TAP	83	288	3
TAP	83	336	2
TAP	84	0	0
STR	84	0	1
SI_	84	0	1	96	48	5
TAP	84	96	1
TAP	84	96	5
TAP	84	192	4
TAP	84	240	3
TAP	84	288	4
TAP	84	336	5
TAP	85	0	3
TAP	85	0	6
TAP	85	96	2
TAP	85	96	4
TAP	85	144	5
TAP	85	192	3
TAP	85	192	6
TAP	85	240	2
TAP	85	288	1
TAP	85	288	6
TAP	85	336	0
TAP	85	336	7
BRK	86	0	1
BRK	86	0	6
TAP	86	288	3
TAP	86	288	4
TAP	87	0	1
TAP	87	48	2
TAP	87	96	3
TAP	87	144	1
TAP	87	192	2
TAP	87	240	3
TAP	87	288	2
TAP	87	336	3
TAP	88	0	4
TAP	88	48	2
TAP	88	96	3
TAP	88	144	4
TAP	88	192	3
TAP	88	240	4
TAP	88	288	5
TAP	89	0	6
TAP	89	48	5
TAP	89	96	4
TAP	89	144	5
TAP	89	192	4
TAP	89	240	3
TAP	89	288	4
TAP	89	336	3
TAP	90	0	2
TAP	90	48	1
STR	90	96	0
SF_	90	96	0	96	96	4
HLD	91	0	1	96
HLD	91	0	3	96
TAP	91	144	1
TAP	91	144	3
TAP	91	240	3
TAP	91	240	4
TAP	91	288	5
STR	91	336	6
SI_	91	336	6	96	48	3
TAP	91	336	7
TAP	92	48	0
TAP	92	48	6
TAP	92	144	0
STR	92	144	1
SI_	92	144	1	96	48	4
TAP	92	240	1
TAP	92	240	7
HLD	93	0	4	96
HLD	93	0	6	96
TAP	93	144	4
TAP	93	144	6
TAP	93	240	3
TAP	93	240	4
TAP	93	288	2
STR	93	336	1
SI_	93	336	1	96	48	4
SI_	93	336	1	96	48	5
TAP	94	48	1
STR	94	144	6
SI_	94	144	6	96	48	2
SI_	94	144	6	96	48	3
TAP	94	240	6
HLD	95	0	0	96
HLD	95	0	2	96
HLD	95	144	5	96
HLD	95	144	7	96
BST	95	288	0
SCR	95	288	0	96	768	7
BRK	95	288	7

T_REC_TAP	498
T_REC_BRK	12
T_REC_XTP	0
T_REC_HLD	31
T_REC_XHO	0
T_REC_STR	87
T_REC_BST	4
T_REC_XST	0
T_REC_TTP	0
T_REC_THO	0
T_REC_SLD	97
T_REC_ALL	729
T_NUM_TAP	585
T_NUM_BRK	16
T_NUM_HLD	31
T_NUM_SLD	97
T_NUM_ALL	729
T_JUDGE_TAP	601
T_JUDGE_HLD	72
T_JUDGE_SLD	97
T_JUDGE_ALL	770
TTM_EACHPAIRS	184
TTM_SCR_TAP	292500
TTM_SCR_BRK	41600
TTM_SCR_HLD	31000
TTM_SCR_SLD	145500
TTM_SCR_ALL	510600
TTM_SCR_S	493750
TTM_SCR_SS	509000
TTM_RAT_ACV	10031

