VERSION	0.00.00	1.03.00
FES_MODE	0
BPM_DEF	190.000	190.000	190.000	190.000
MET_DEF	4	4
RESOLUTION	384
CLK_DEF	384
COMPATIBLE_CODE	MA2

BPM	0	0	190.000
MET	0	0	4	4

STR	1	0	3
SUL	1	0	3	96	384	6
TAP	1	0	4
TAP	3	0	0
STR	3	0	7
SUL	3	0	7	96	384	2
HLD	5	0	4	96
HLD	5	0	5	96
TAP	5	144	4
TAP	5	144	5
HLD	5	288	2	96
HLD	5	288	3	96
TAP	6	48	2
TAP	6	48	3
TAP	6	192	3
TAP	6	192	4
TAP	6	288	3
TAP	6	288	4
TAP	7	0	2
TAP	7	96	2
TAP	7	96	3
TAP	7	192	5
TAP	7	288	4
TAP	7	288	5
TAP	8	0	2
TAP	8	96	1
TAP	8	96	3
TAP	8	192	5
STR	8	288	4
SCL	8	288	4	96	144	1
TAP	8	288	6
TAP	9	288	0
TAP	9	288	7
TAP	10	0	6
TAP	10	96	4
TAP	10	96	5
TAP	10	192	3
TAP	10	192	4
TAP	10	288	2
TAP	10	288	3
TAP	11	0	5
TAP	11	96	4
TAP	11	96	5
TAP	11	192	2
TAP	11	288	2
TAP	11	288	3
TAP	12	0	5
TAP	12	96	4
TAP	12	96	6
TAP	12	192	2
TAP	12	288	1
STR	12	288	3
SCR	12	288	3	96	144	6
TAP	13	288	0
TAP	13	288	7
TAP	14	0	1
TAP	14	96	2
TAP	14	96	3
TAP	14	192	4
TAP	14	192	5
TAP	14	288	3
TAP	14	288	6
TAP	15	0	2
TAP	15	96	2
TAP	15	96	3
HLD	15	192	1	144
TAP	15	192	4
TAP	15	336	0
TAP	16	48	6
TAP	16	48	7
TAP	16	144	4
TAP	16	144	5
TAP	16	240	3
TAP	16	240	6
TAP	16	288	3
TAP	16	288	6
TAP	17	0	2
HLD	17	0	5	480
TAP	17	96	2
TAP	17	192	3
TAP	17	288	3
TAP	18	0	4
TAP	18	96	4
TAP	18	192	3
TAP	18	288	4
HLD	19	0	2	480
TAP	19	0	5
TAP	19	96	5
TAP	19	192	4
TAP	19	288	4
TAP	20	0	3
TAP	20	96	3
TAP	20	192	1
TAP	20	192	4
HLD	21	0	5	192
TAP	21	96	4
TAP	21	192	4
TAP	21	288	3
TAP	21	288	4
HLD	22	0	2	192
TAP	22	96	3
TAP	22	192	3
TAP	22	288	3
TAP	22	288	4
HLD	23	0	5	192
TAP	23	96	4
HLD	23	192	2	192
TAP	23	288	3
TAP	24	0	4
TAP	24	96	3
TAP	24	96	4
TAP	24	192	2
TAP	24	192	5
HLD	25	0	5	384
TAP	25	96	4
TAP	25	192	3
TAP	25	288	2
HLD	26	0	1	288
TAP	26	96	2
TAP	26	192	3
STR	26	288	4
SCR	26	288	4	96	192	7
TAP	27	288	0
TAP	27	288	1
HLD	27	336	0	144
HLD	27	336	1	144
TAP	28	192	2
TAP	28	288	3
TAP	29	0	3
TAP	29	0	4
TAP	29	96	5
TAP	29	192	3
TAP	29	192	4
TAP	29	288	2
TAP	30	0	4
TAP	30	0	5
TAP	30	96	6
TAP	30	192	2
TAP	30	192	3
TAP	30	288	1
TAP	31	0	4
STR	31	0	5
SCR	31	0	5	96	288	2
HLD	31	96	3	288
TAP	32	192	0
TAP	32	192	7
TAP	32	288	1
TAP	32	288	6
HLD	33	0	5	192
TAP	33	144	4
TAP	33	192	4
TAP	33	288	3
TAP	33	288	6
HLD	34	0	2	192
TAP	34	144	3
TAP	34	192	3
TAP	34	288	1
TAP	34	288	4
TAP	35	0	5
TAP	35	96	5
TAP	35	192	4
TAP	35	192	5
TAP	35	288	5
TAP	36	0	6
TAP	36	48	6
TAP	36	96	7
TAP	36	192	0
TAP	36	192	5
HLD	37	0	1	192
TAP	37	144	0
TAP	37	192	0
TAP	37	288	2
TAP	37	288	7
HLD	38	0	6	192
TAP	38	144	7
TAP	38	192	7
TAP	38	288	0
TAP	38	288	5
HLD	39	0	4	384
TAP	39	96	5
TAP	39	288	5
HLD	40	0	3	384
TAP	40	96	2
TAP	40	288	2
TAP	41	0	4
TAP	41	96	4
TAP	41	192	3
TAP	41	192	4
STR	41	288	3
SXR	41	288	3	96	192	1
STR	41	288	4
SXL	41	288	4	96	192	6
BRK	43	0	1
BRK	43	0	6
TAP	43	96	4
TAP	43	96	5
HLD	43	192	2	96
TAP	43	192	3
TAP	43	288	0
TAP	44	0	0
TAP	44	0	7
TAP	44	96	4
TAP	44	96	6
HLD	44	192	3	96
TAP	44	192	4
STR	44	288	2
SCR	44	288	2	96	192	0
HLD	45	288	2	96
TAP	46	0	3
TAP	46	96	1
TAP	46	96	4
TAP	46	192	0
TAP	46	192	5
TAP	46	288	1
TAP	46	288	6
TAP	47	0	2
TAP	47	48	2
TAP	47	96	3
TAP	47	192	1
TAP	47	192	4
TAP	47	288	5
TAP	47	336	5
TAP	48	0	4
TAP	48	96	3
TAP	48	96	6
TAP	48	192	2
TAP	48	192	4
TAP	48	288	6
TAP	48	288	7
TAP	49	0	5
TAP	49	48	5
TAP	49	96	4
TAP	49	192	3
TAP	49	192	6
TAP	49	288	2
TAP	49	336	2
TAP	50	0	3
TAP	50	96	1
TAP	50	96	4
TAP	50	192	0
TAP	50	192	7
TAP	51	0	2
TAP	51	0	5
TAP	51	96	6
TAP	51	96	7
TAP	51	192	0
HLD	51	192	1	96
TAP	51	288	3
TAP	52	0	3
TAP	52	0	4
TAP	52	96	5
TAP	52	96	7
HLD	52	192	0	96
TAP	52	192	7
STR	52	288	1
SCL	52	288	1	96	192	3
HLD	53	288	1	96
TAP	54	0	0
TAP	54	96	2
TAP	54	96	7
TAP	54	192	3
TAP	54	192	6
TAP	54	288	2
TAP	54	288	5
TAP	55	0	6
TAP	55	48	6
TAP	55	96	7
TAP	55	192	0
TAP	55	192	5
TAP	55	288	1
TAP	55	336	1
TAP	56	0	0
TAP	56	96	2
TAP	56	96	7
TAP	56	192	0
TAP	56	192	6
TAP	56	288	2
TAP	56	288	3
TAP	57	0	1
TAP	57	48	1
TAP	57	96	0
TAP	57	192	2
TAP	57	192	7
TAP	57	288	6
TAP	57	336	6
TAP	58	0	7
TAP	58	96	0
TAP	58	96	5
BRK	58	192	1
BRK	58	192	6
HLD	59	0	2	96
TAP	59	96	3
HLD	59	192	5	96
TAP	59	288	4
HLD	60	0	1	96
TAP	60	96	3
HLD	60	192	6	96
TAP	60	288	4
HLD	61	0	1	96
TAP	61	96	0
HLD	61	192	6	96
STR	61	288	7
SXL	61	288	7	96	288	2
TAP	63	0	5
TAP	63	96	4
HLD	63	96	6	96
TAP	63	192	7
TAP	63	288	0
TAP	63	288	5
TAP	64	0	2
HLD	64	96	1	96
TAP	64	96	3
TAP	64	192	0
TAP	64	288	2
TAP	64	288	7
TAP	65	0	1
TAP	65	0	6
TAP	65	96	5
TAP	65	192	1
TAP	65	192	4
HLD	65	288	2	96
TAP	66	0	3
TAP	66	96	1
TAP	66	96	4
TAP	66	192	0
TAP	66	192	5
TAP	66	288	1
TAP	66	288	6
TAP	67	0	2
TAP	67	0	7
TAP	67	96	1
TAP	67	144	0
TAP	67	192	1
TAP	67	288	0
TAP	67	288	5
TAP	68	0	6
TAP	68	48	7
TAP	68	96	6
TAP	68	192	2
TAP	68	192	7
TAP	68	288	4
TAP	68	288	5
TAP	69	0	1
TAP	69	0	4
TAP	69	96	2
TAP	69	144	3
TAP	69	192	2
TAP	69	288	3
TAP	69	288	6
TAP	70	0	5
TAP	70	48	4
TAP	70	96	5
TAP	70	192	1
TAP	70	192	6
BRK	71	0	0
BRK	71	0	7
TAP	71	96	2
TAP	71	96	3
TAP	71	192	5
HLD	71	192	6	96
TAP	71	288	7
TAP	72	0	0
TAP	72	0	1
TAP	72	96	2
TAP	72	96	3
TAP	72	192	4
HLD	72	192	5	96
STR	72	288	6
SCL	72	288	6	96	192	0
HLD	73	288	6	96
TAP	74	0	7
TAP	74	96	0
TAP	74	96	5
TAP	74	192	1
TAP	74	192	4
TAP	74	288	2
TAP	74	288	5
TAP	75	0	1
TAP	75	0	6
TAP	75	96	5
TAP	75	144	4
TAP	75	192	4
TAP	75	192	5
TAP	75	288	1
TAP	75	288	6
TAP	76	0	2
TAP	76	48	3
TAP	76	96	2
TAP	76	96	3
TAP	76	192	1
TAP	76	192	4
TAP	76	288	6
TAP	76	288	7
TAP	77	0	2
TAP	77	0	5
TAP	77	96	1
TAP	77	144	0
TAP	77	192	0
TAP	77	192	1
TAP	77	288	2
TAP	77	288	5
TAP	78	0	6
TAP	78	48	7
TAP	78	96	6
TAP	78	96	7
BRK	78	192	0
BRK	78	192	5
HLD	79	0	1	96
TAP	79	96	0
HLD	79	192	6	96
TAP	79	288	7
HLD	80	0	2	96
TAP	80	96	0
HLD	80	192	5	96
TAP	80	288	7
HLD	81	0	1	96
TAP	81	96	2
HLD	81	192	6	96
STR	81	288	5
SCR	81	288	5	96	192	2
SUR	81	288	5	96	192	2
TAP	82	288	0
TAP	82	288	7
HLD	83	0	2	96
TAP	83	0	3
TAP	83	96	1
TAP	83	192	4
HLD	83	192	5	96
TAP	83	288	6
HLD	84	0	2	96
TAP	84	0	3
TAP	84	96	0
TAP	84	192	4
HLD	84	192	5	96
TAP	84	288	7
TAP	85	0	2
HLD	85	0	3	576
TAP	85	96	2
TAP	85	192	4
TAP	85	288	4
HLD	86	0	4	192
HLD	87	0	2	144
HLD	87	144	3	144
HLD	87	288	4	144
TAP	88	48	5
TAP	88	192	3
TAP	88	192	6
HLD	89	0	6	144
HLD	89	144	5	144
HLD	89	288	4	144
TAP	90	48	3
TAP	90	192	2
TAP	90	192	5
HLD	91	0	0	96
HLD	91	0	1	96
TAP	91	144	0
TAP	91	144	1
STR	91	240	2
SCL	91	240	2	96	240	5
TAP	91	240	7
TAP	92	288	3
TAP	92	288	4
HLD	93	0	6	96
HLD	93	0	7	96
TAP	93	144	6
TAP	93	144	7
TAP	93	240	0
HLD	93	240	5	96
TAP	93	336	4
TAP	94	48	2
TAP	94	48	3
TAP	94	144	0
TAP	94	144	1
TAP	94	240	2
TAP	94	240	7
TAP	94	288	2
TAP	94	288	7
HLD	95	0	0	96
HLD	95	0	7	96
HLD	95	144	1	96
HLD	95	144	6	96
STR	95	288	2
SCL	95	288	2	96	768	4
STR	95	288	5
SCR	95	288	5	96	768	3

T_REC_TAP	377
T_REC_BRK	8
T_REC_XTP	0
T_REC_HLD	67
T_REC_XHO	0
T_REC_STR	16
T_REC_BST	0
T_REC_XST	0
T_REC_TTP	0
T_REC_THO	0
T_REC_SLD	17
T_REC_ALL	485
T_NUM_TAP	393
T_NUM_BRK	8
T_NUM_HLD	67
T_NUM_SLD	17
T_NUM_ALL	485
T_JUDGE_TAP	401
T_JUDGE_HLD	213
T_JUDGE_SLD	17
T_JUDGE_ALL	631
TTM_EACHPAIRS	144
TTM_SCR_TAP	196500
TTM_SCR_BRK	20800
TTM_SCR_HLD	67000
TTM_SCR_SLD	25500
TTM_SCR_ALL	309800
TTM_SCR_S	299750
TTM_SCR_SS	309000
TTM_RAT_ACV	10025

