VERSION	0.00.00	1.03.00
FES_MODE	0
BPM_DEF	190.000	190.000	190.000	190.000
MET_DEF	4	4
RESOLUTION	384
CLK_DEF	384
COMPATIBLE_CODE	MA2

BPM	0	0	190.000
MET	0	0	4	4

STR	1	0	3
SXR	1	0	3	96	480	0
STR	3	0	7
SXR	3	0	7	96	480	4
STR	5	0	2
SCL	5	0	2	96	480	5
TAP	5	0	5
TAP	7	0	5
TAP	7	96	5
TAP	7	192	4
TAP	8	0	2
TAP	8	96	2
TAP	8	192	3
TAP	9	0	5
TAP	9	96	5
TAP	9	192	4
TAP	10	0	3
TAP	10	96	3
TAP	10	192	3
TAP	10	192	4
TAP	11	0	1
TAP	11	96	1
TAP	11	192	0
TAP	12	0	6
TAP	12	96	6
TAP	12	192	7
TAP	13	0	1
TAP	13	96	1
TAP	13	192	0
TAP	14	0	7
TAP	14	96	7
TAP	14	192	0
TAP	14	192	7
STR	15	0	0
SXL	15	0	0	96	480	3
STR	15	0	7
SXR	15	0	7	96	480	4
TAP	17	0	3
TAP	17	96	3
TAP	17	192	3
TAP	18	0	4
TAP	18	96	4
TAP	18	192	4
TAP	19	0	2
TAP	19	96	2
TAP	19	192	3
TAP	20	0	5
TAP	20	96	5
TAP	20	192	4
TAP	20	192	5
TAP	21	0	0
TAP	21	96	0
TAP	21	192	0
TAP	22	0	7
TAP	22	96	7
TAP	22	192	7
TAP	23	0	1
TAP	23	96	1
TAP	23	192	0
TAP	24	0	6
TAP	24	96	6
TAP	24	192	6
TAP	24	192	7
TAP	25	0	5
TAP	25	96	5
TAP	25	192	4
TAP	25	192	5
TAP	26	0	2
TAP	26	96	2
TAP	26	192	2
TAP	26	192	3
HLD	27	0	3	192
HLD	27	0	4	192
TAP	28	0	3
TAP	28	0	4
TAP	28	96	3
TAP	28	96	4
TAP	28	192	2
TAP	28	192	5
TAP	29	0	1
TAP	29	96	1
TAP	29	192	0
TAP	29	192	1
TAP	30	0	6
TAP	30	96	6
TAP	30	192	6
TAP	30	192	7
TAP	31	0	0
TAP	31	96	0
TAP	31	192	7
TAP	31	288	7
STR	32	0	0
SI_	32	0	0	96	192	3
STR	32	0	7
SI_	32	0	7	96	192	4
HLD	33	0	5	192
TAP	33	192	4
HLD	34	0	2	192
TAP	34	192	3
HLD	35	0	3	192
HLD	35	0	4	192
TAP	36	0	3
TAP	36	0	4
TAP	36	192	2
TAP	36	192	5
HLD	37	0	6	192
TAP	37	192	7
HLD	38	0	1	192
TAP	38	192	0
TAP	39	0	2
TAP	39	0	3
TAP	39	192	1
TAP	39	192	4
TAP	40	0	4
TAP	40	0	5
TAP	40	192	3
TAP	40	192	6
STR	41	0	3
SCL	41	0	3	96	288	0
STR	41	0	4
SCR	41	0	4	96	288	7
TAP	42	192	1
TAP	42	192	6
BRK	43	0	1
TAP	43	96	0
TAP	43	192	2
TAP	43	192	7
TAP	44	0	6
TAP	44	96	7
TAP	44	192	0
TAP	44	192	5
TAP	45	0	0
TAP	45	96	0
TAP	45	192	7
TAP	45	288	7
TAP	46	0	0
TAP	46	96	7
TAP	46	192	1
TAP	46	192	6
TAP	47	0	0
TAP	47	96	1
TAP	47	192	2
TAP	47	288	3
TAP	48	0	4
TAP	48	96	5
TAP	48	192	6
TAP	48	192	7
TAP	49	0	7
TAP	49	96	6
TAP	49	192	5
TAP	49	288	4
TAP	50	0	3
TAP	50	96	2
TAP	50	192	1
TAP	50	192	4
TAP	51	0	5
TAP	51	96	4
TAP	51	192	3
TAP	51	192	6
TAP	52	0	2
TAP	52	96	3
TAP	52	192	1
TAP	52	192	4
TAP	53	0	4
TAP	53	96	4
TAP	53	192	3
TAP	53	288	3
TAP	54	0	4
TAP	54	96	3
TAP	54	192	2
TAP	54	192	5
TAP	55	0	3
TAP	55	96	2
TAP	55	192	1
TAP	55	288	0
TAP	56	0	7
TAP	56	96	6
TAP	56	192	4
TAP	56	192	5
TAP	57	0	4
TAP	57	96	5
TAP	57	192	6
TAP	57	288	7
TAP	58	0	0
TAP	58	96	1
TAP	58	192	2
TAP	58	192	7
HLD	59	0	5	96
TAP	59	96	4
TAP	59	192	3
TAP	59	192	6
HLD	60	0	2	96
TAP	60	96	3
TAP	60	192	1
TAP	60	192	4
HLD	61	0	6	96
TAP	61	96	7
TAP	61	192	0
TAP	61	192	5
HLD	62	0	0	96
TAP	62	96	7
TAP	62	192	0
TAP	62	192	7
BST	62	288	1
SLR	62	288	1	96	576	0
BST	62	288	6
SLL	62	288	6	96	576	7
TAP	65	0	0
TAP	65	96	0
TAP	65	192	7
TAP	65	288	7
TAP	66	0	0
TAP	66	96	7
TAP	66	192	1
TAP	66	192	6
TAP	67	0	0
TAP	67	96	1
TAP	67	192	2
TAP	67	192	3
TAP	67	288	4
TAP	68	0	5
TAP	68	96	6
TAP	68	192	0
TAP	68	192	7
TAP	69	0	7
TAP	69	96	6
TAP	69	192	4
TAP	69	192	5
TAP	69	288	3
TAP	70	0	2
TAP	70	96	0
TAP	70	96	1
TAP	70	192	2
TAP	70	192	7
TAP	71	0	5
TAP	71	96	4
TAP	71	192	3
TAP	71	192	6
TAP	72	0	2
TAP	72	96	3
TAP	72	192	1
TAP	72	192	4
TAP	73	0	4
TAP	73	96	4
TAP	73	192	3
TAP	73	288	3
TAP	74	0	3
TAP	74	0	4
TAP	74	96	3
TAP	74	96	4
TAP	74	192	2
TAP	74	192	5
TAP	75	0	3
TAP	75	96	2
TAP	75	192	0
TAP	75	192	1
TAP	75	288	7
TAP	76	0	6
TAP	76	96	5
TAP	76	192	3
TAP	76	192	4
TAP	77	0	4
TAP	77	96	5
TAP	77	192	6
TAP	77	192	7
TAP	77	288	0
TAP	78	0	1
TAP	78	96	2
TAP	78	96	3
TAP	78	192	1
TAP	78	192	4
HLD	79	0	1	96
TAP	79	96	0
TAP	79	192	2
TAP	79	192	7
HLD	80	0	6	96
TAP	80	96	7
TAP	80	192	0
TAP	80	192	5
HLD	81	0	0	96
TAP	81	96	7
TAP	81	192	1
TAP	81	192	6
TAP	82	0	0
TAP	82	0	7
TAP	82	96	1
TAP	82	96	6
TAP	82	192	2
TAP	82	192	5
TAP	83	0	4
TAP	83	96	5
TAP	83	192	6
TAP	83	192	7
TAP	84	0	3
TAP	84	96	2
TAP	84	192	0
TAP	84	192	1
TAP	85	0	4
TAP	85	96	4
TAP	85	192	3
TAP	85	288	3
HLD	86	0	3	96
HLD	86	0	4	96
TAP	86	192	2
TAP	86	192	5
TAP	87	0	4
STR	87	0	5
SCR	87	0	5	96	480	2
STR	89	0	2
SCL	89	0	2	96	480	5
TAP	89	0	3
STR	91	0	3
SXR	91	0	3	96	480	0
TAP	91	0	4
TAP	93	0	0
STR	93	0	7
SXR	93	0	7	96	480	4
HLD	95	0	3	160
HLD	95	0	4	160
TAP	95	304	2
TAP	95	304	5

T_REC_TAP	271
T_REC_BRK	1
T_REC_XTP	0
T_REC_HLD	19
T_REC_XHO	0
T_REC_STR	13
T_REC_BST	2
T_REC_XST	0
T_REC_TTP	0
T_REC_THO	0
T_REC_SLD	15
T_REC_ALL	321
T_NUM_TAP	284
T_NUM_BRK	3
T_NUM_HLD	19
T_NUM_SLD	15
T_NUM_ALL	321
T_JUDGE_TAP	287
T_JUDGE_HLD	58
T_JUDGE_SLD	15
T_JUDGE_ALL	360
TTM_EACHPAIRS	71
TTM_SCR_TAP	142000
TTM_SCR_BRK	7800
TTM_SCR_HLD	19000
TTM_SCR_SLD	22500
TTM_SCR_ALL	191300
TTM_SCR_S	185300
TTM_SCR_SS	191000
TTM_RAT_ACV	10015

