VERSION	0.00.00	1.03.00
FES_MODE	0
BPM_DEF	190.000	190.000	190.000	190.000
MET_DEF	4	4
RESOLUTION	384
CLK_DEF	384
COMPATIBLE_CODE	MA2

BPM	0	0	190.000
MET	0	0	4	4

TAP	7	0	0
TAP	7	192	0
TAP	8	0	1
TAP	8	192	1
TAP	9	0	2
TAP	9	192	2
TAP	10	0	3
TAP	10	192	3
TAP	10	192	4
TAP	11	0	4
TAP	11	192	4
TAP	12	0	5
TAP	12	192	5
TAP	13	0	6
TAP	13	192	6
TAP	14	0	7
TAP	14	192	0
TAP	14	192	7
HLD	15	0	0	384
HLD	15	0	7	384
TAP	17	0	0
TAP	17	192	0
TAP	18	0	0
TAP	18	0	1
TAP	18	192	0
TAP	18	192	1
HLD	19	0	0	384
HLD	19	0	1	384
TAP	21	0	7
TAP	21	192	7
TAP	22	0	6
TAP	22	0	7
TAP	22	192	6
TAP	22	192	7
HLD	23	0	6	384
HLD	23	0	7	384
TAP	25	0	5
TAP	25	192	5
TAP	26	0	4
TAP	26	0	5
TAP	26	192	4
TAP	26	192	5
HLD	27	0	4	384
HLD	27	0	5	384
TAP	29	0	3
TAP	29	192	3
TAP	30	0	2
TAP	30	0	3
TAP	30	192	2
TAP	30	192	3
HLD	31	0	2	384
HLD	31	0	3	384
STR	33	0	4
SI_	33	0	4	96	288	7
STR	35	0	3
SI_	35	0	3	96	288	0
STR	37	0	7
SI_	37	0	7	96	288	4
STR	39	0	0
SI_	39	0	0	96	288	3
HLD	41	0	7	384
BRK	43	0	0
TAP	43	96	0
TAP	43	192	0
TAP	44	0	1
TAP	44	96	1
TAP	44	192	1
TAP	45	0	2
TAP	45	96	2
TAP	45	192	2
TAP	46	0	3
TAP	46	96	3
TAP	46	192	3
TAP	46	192	4
TAP	47	0	4
TAP	47	96	4
TAP	47	192	4
TAP	48	0	5
TAP	48	96	5
TAP	48	192	5
TAP	49	0	6
TAP	49	96	6
TAP	49	192	6
TAP	50	0	7
TAP	50	96	7
TAP	50	192	0
TAP	50	192	7
TAP	51	0	6
TAP	51	96	6
TAP	51	192	6
TAP	52	0	5
TAP	52	96	5
TAP	52	192	5
TAP	53	0	4
TAP	53	96	4
TAP	53	192	4
TAP	54	0	3
TAP	54	96	3
TAP	54	192	3
TAP	54	192	4
TAP	55	0	2
TAP	55	96	2
TAP	55	192	2
TAP	56	0	1
TAP	56	96	1
TAP	56	192	1
TAP	57	0	0
TAP	57	96	0
TAP	57	192	0
TAP	58	0	7
TAP	58	96	7
TAP	58	192	0
TAP	58	192	7
TAP	59	0	0
TAP	59	96	0
TAP	59	192	0
TAP	60	0	0
TAP	60	0	1
TAP	60	96	0
TAP	60	96	1
TAP	60	192	0
TAP	60	192	1
TAP	61	0	7
TAP	61	96	7
TAP	61	192	7
TAP	62	0	6
TAP	62	0	7
TAP	62	96	6
TAP	62	96	7
TAP	62	192	6
TAP	62	192	7
STR	63	0	0
SI_	63	0	0	96	288	4
STR	65	0	7
SI_	65	0	7	96	288	3
TAP	67	0	0
TAP	67	96	0
TAP	67	192	0
TAP	68	0	1
TAP	68	96	1
TAP	68	192	0
TAP	68	192	1
TAP	69	0	2
TAP	69	96	2
TAP	69	192	2
TAP	70	0	3
TAP	70	96	3
TAP	70	192	3
TAP	70	192	4
TAP	71	0	4
TAP	71	96	4
TAP	71	192	4
TAP	72	0	5
TAP	72	96	5
TAP	72	192	4
TAP	72	192	5
TAP	73	0	6
TAP	73	96	6
TAP	73	192	6
TAP	74	0	7
TAP	74	96	7
TAP	74	192	0
TAP	74	192	7
TAP	75	0	1
TAP	75	96	1
TAP	75	192	0
TAP	75	192	1
TAP	76	0	2
TAP	76	96	2
TAP	76	192	2
TAP	76	192	3
TAP	77	0	4
TAP	77	96	4
TAP	77	192	3
TAP	77	192	4
TAP	78	0	5
TAP	78	96	5
TAP	78	192	4
TAP	78	192	5
TAP	79	0	6
TAP	79	96	6
TAP	79	192	6
TAP	80	0	6
TAP	80	0	7
TAP	80	96	6
TAP	80	96	7
TAP	80	192	6
TAP	80	192	7
TAP	81	0	0
TAP	81	96	0
TAP	81	192	0
TAP	82	0	0
TAP	82	0	1
TAP	82	96	0
TAP	82	96	1
TAP	82	192	0
TAP	82	192	1
TAP	83	0	0
TAP	83	96	0
TAP	83	192	7
TAP	83	288	7
TAP	84	0	6
TAP	84	96	6
TAP	84	192	6
TAP	84	192	7
TAP	85	0	7
TAP	85	96	7
TAP	85	192	0
TAP	85	288	0
TAP	86	0	1
TAP	86	96	1
TAP	86	192	0
TAP	86	192	1
STR	87	0	7
SI_	87	0	7	96	288	4
STR	89	0	0
SI_	89	0	0	96	288	3
HLD	91	0	7	384
HLD	93	0	0	384
STR	95	0	0
SI_	95	0	0	96	288	3
STR	95	0	7
SI_	95	0	7	96	288	4

T_REC_TAP	189
T_REC_BRK	1
T_REC_XTP	0
T_REC_HLD	13
T_REC_XHO	0
T_REC_STR	10
T_REC_BST	0
T_REC_XST	0
T_REC_TTP	0
T_REC_THO	0
T_REC_SLD	10
T_REC_ALL	223
T_NUM_TAP	199
T_NUM_BRK	1
T_NUM_HLD	13
T_NUM_SLD	10
T_NUM_ALL	223
T_JUDGE_TAP	200
T_JUDGE_HLD	104
T_JUDGE_SLD	10
T_JUDGE_ALL	314
TTM_EACHPAIRS	42
TTM_SCR_TAP	99500
TTM_SCR_BRK	2600
TTM_SCR_HLD	13000
TTM_SCR_SLD	15000
TTM_SCR_ALL	130100
TTM_SCR_S	126100
TTM_SCR_SS	130000
TTM_RAT_ACV	10007

