VERSION	0.00.00	1.03.00
FES_MODE	0
BPM_DEF	160.000	160.000	160.000	160.000
MET_DEF	4	4
RESOLUTION	384
CLK_DEF	384
COMPATIBLE_CODE	MA2

BPM	0	0	160.000
MET	0	0	4	4

BRK	2	288	1
BRK	2	288	6
STR	3	0	4
SI_	3	0	4	96	48	7
STR	3	96	3
SI_	3	96	3	96	48	0
STR	3	192	4
SI_	3	192	4	96	48	6
STR	3	288	3
SI_	3	288	3	96	48	1
STR	4	0	4
SXL	4	0	4	96	96	3
TAP	4	96	2
TAP	4	192	1
BRK	4	240	0
BRK	4	288	0
STR	5	0	3
SI_	5	0	3	96	48	0
STR	5	96	4
SI_	5	96	4	96	48	7
STR	5	192	3
SI_	5	192	3	96	48	1
STR	5	288	4
SI_	5	288	4	96	48	6
STR	6	0	3
SXR	6	0	3	96	96	4
TAP	6	96	5
TAP	6	192	6
BRK	6	240	7
BRK	6	288	7
STR	7	0	4
SI_	7	0	4	96	48	7
STR	7	96	3
SI_	7	96	3	96	48	0
STR	7	192	4
SI_	7	192	4	96	48	6
STR	7	288	3
SI_	7	288	3	96	48	1
STR	8	0	4
SXL	8	0	4	96	96	3
TAP	8	96	2
TAP	8	192	1
BRK	8	240	0
BRK	8	288	0
STR	9	0	3
SF_	9	0	3	96	48	7
STR	9	192	4
SF_	9	192	4	96	48	0
BRK	10	0	2
HLD	10	0	7	192
BRK	10	96	1
BRK	10	192	0
BRK	10	288	1
BRK	10	288	6
HLD	11	0	3	192
TAP	11	96	4
TAP	11	144	5
HLD	11	192	6	192
TAP	11	288	5
TAP	11	336	4
HLD	12	0	3	96
TAP	12	48	4
HLD	12	96	5	96
TAP	12	144	4
HLD	12	192	2	96
TAP	12	240	3
HLD	12	288	4	96
TAP	12	336	3
HLD	13	0	1	192
TAP	13	96	2
TAP	13	144	3
HLD	13	192	4	192
TAP	13	288	3
TAP	13	336	2
STR	14	0	1
SXL	14	0	1	96	48	2
STR	14	96	7
SXR	14	96	7	96	48	6
STR	14	192	0
SXL	14	192	0	96	48	1
BRK	14	288	7
HLD	15	0	4	192
TAP	15	96	3
TAP	15	144	2
HLD	15	192	1	192
TAP	15	288	2
TAP	15	336	3
HLD	16	0	4	96
TAP	16	48	3
HLD	16	96	2	96
TAP	16	144	3
HLD	16	192	5	96
TAP	16	240	4
HLD	16	288	3	48
TAP	16	336	4
HLD	17	0	4	96
HLD	17	0	6	96
HLD	17	192	1	96
HLD	17	192	3	96
TAP	18	0	4
STR	18	0	6
SI_	18	0	6	96	48	1
STR	18	96	2
SI_	18	96	2	96	48	5
TAP	18	96	6
TAP	18	192	0
TAP	18	192	2
BRK	18	288	1
BRK	18	288	6
STR	19	0	2
SUR	19	0	2	96	192	4
TAP	19	96	6
TAP	19	192	5
TAP	19	288	6
STR	20	0	5
SUL	20	0	5	96	192	3
TAP	20	96	1
TAP	20	144	1
TAP	20	192	2
TAP	20	288	1
STR	21	0	2
SCL	21	0	2	96	288	5
TAP	21	96	5
TAP	21	192	4
TAP	21	288	3
STR	22	0	2
SCL	22	0	2	96	288	5
TAP	22	96	5
TAP	22	192	4
TAP	22	288	3
STR	23	0	2
SXR	23	0	2	96	192	4
TAP	23	96	6
TAP	23	192	5
TAP	23	288	6
STR	24	0	5
SXL	24	0	5	96	192	3
TAP	24	96	1
TAP	24	144	1
TAP	24	192	2
TAP	24	288	1
STR	25	0	1
SCR	25	0	1	96	48	4
TAP	25	96	5
STR	25	192	6
SCL	25	192	6	96	48	3
TAP	25	288	2
HLD	26	0	0	288
HLD	26	192	7	96
BST	27	0	1
SCR	27	0	1	96	288	7
BST	27	0	6
SCL	27	0	6	96	288	0
STR	28	96	3
SI_	28	96	3	96	48	0
STR	28	96	4
SI_	28	96	4	96	48	7
BRK	28	192	3
BRK	28	192	4
BRK	28	288	2
BST	28	288	5
SI_	28	288	5	96	48	7
STR	29	0	4
SI_	29	0	4	96	48	0
STR	29	96	5
SI_	29	96	5	96	48	7
TAP	29	192	4
BRK	29	240	3
BST	29	288	3
SI_	29	288	3	96	48	7
BRK	29	288	7
STR	30	0	4
SI_	30	0	4	96	48	0
STR	30	96	3
SI_	30	96	3	96	48	7
TAP	30	192	4
STR	30	288	2
SI_	30	288	2	96	48	0
TAP	30	288	6
STR	31	0	3
SI_	31	0	3	96	48	7
STR	31	96	2
SI_	31	96	2	96	48	0
TAP	31	192	3
BRK	31	240	4
BRK	31	288	0
BST	31	288	4
SI_	31	288	4	96	48	0
STR	32	0	3
SI_	32	0	3	96	48	7
STR	32	96	4
SI_	32	96	4	96	48	0
TAP	32	192	3
BRK	32	288	1
BST	32	288	5
SI_	32	288	5	96	48	7
STR	33	0	4
SI_	33	0	4	96	48	0
STR	33	96	5
SI_	33	96	5	96	48	7
TAP	33	192	4
BRK	33	240	3
BST	33	288	3
SI_	33	288	3	96	48	7
BRK	33	288	7
STR	34	0	4
SI_	34	0	4	96	48	0
STR	34	96	3
SI_	34	96	3	96	48	7
TAP	34	192	4
STR	34	288	2
SV_	34	288	2	96	96	3
STR	34	288	6
SLR	34	288	6	96	96	4
STR	35	192	1
SI_	35	192	1	96	48	7
SLR	35	192	1	96	48	5
TAP	36	0	0
TAP	36	0	2
TAP	36	72	5
TAP	36	72	7
TAP	36	144	3
TAP	36	144	4
TAP	36	192	3
TAP	36	192	4
BRK	36	288	1
BRK	36	288	6
STR	37	0	3
SI_	37	0	3	96	48	1
STR	37	0	4
SI_	37	0	4	96	48	0
STR	37	96	3
SI_	37	96	3	96	48	7
STR	37	96	4
SI_	37	96	4	96	48	6
STR	37	192	3
SI_	37	192	3	96	48	1
STR	37	192	4
SI_	37	192	4	96	48	0
BST	37	288	3
SI_	37	288	3	96	48	7
BST	37	288	4
SI_	37	288	4	96	48	6
STR	38	0	3
SI_	38	0	3	96	48	1
STR	38	0	4
SI_	38	0	4	96	48	0
TAP	38	96	3
TAP	38	96	4
BRK	38	192	2
BRK	38	192	7
BST	38	288	3
SI_	38	288	3	96	48	1
BST	38	288	4
SI_	38	288	4	96	48	0
STR	39	0	3
SI_	39	0	3	96	48	7
STR	39	0	4
SI_	39	0	4	96	48	6
STR	39	96	3
SI_	39	96	3	96	48	1
STR	39	96	4
SI_	39	96	4	96	48	0
STR	39	192	3
SI_	39	192	3	96	48	7
STR	39	192	4
SI_	39	192	4	96	48	6
BST	39	288	3
SI_	39	288	3	96	48	1
BST	39	288	4
SI_	39	288	4	96	48	0
STR	40	0	3
SI_	40	0	3	96	48	7
STR	40	0	4
SI_	40	0	4	96	48	6
STR	40	96	3
SI_	40	96	3	96	48	1
STR	40	96	4
SI_	40	96	4	96	48	0
TAP	40	192	3
TAP	40	192	4
BRK	40	288	1
BRK	40	288	6
HLD	41	0	2	96
HLD	41	0	6	96
HLD	41	192	0	96
HLD	41	192	4	96
TAP	42	0	0
TAP	42	0	4
TAP	42	48	1
TAP	42	48	5
TAP	42	96	2
TAP	42	96	6
TAP	42	144	3
TAP	42	144	7
STR	42	192	0
SCL	42	192	0	96	48	5
STR	42	192	4
SCL	42	192	4	96	48	1
TAP	42	288	0
TAP	42	288	4
TAP	43	0	3
TAP	43	0	4
TAP	43	48	2
TAP	43	96	3
TAP	43	96	4
TAP	43	144	5
TAP	43	192	3
TAP	43	192	4
TAP	43	240	1
TAP	43	240	3
TAP	43	288	3
TAP	43	288	4
TAP	43	336	4
TAP	43	336	6
TAP	44	0	0
TAP	44	0	7
TAP	44	72	3
TAP	44	72	4
TAP	44	144	1
TAP	44	144	6
STR	44	192	1
SI_	44	192	1	96	48	5
STR	44	192	6
SI_	44	192	6	96	48	2
BRK	44	288	1
BRK	44	288	6
STR	45	0	3
SI_	45	0	3	96	48	0
TAP	45	0	4
TAP	45	96	3
STR	45	96	4
SI_	45	96	4	96	48	7
STR	45	192	3
SI_	45	192	3	96	48	1
TAP	45	192	4
TAP	45	288	3
STR	45	288	4
SXL	45	288	4	96	96	3
STR	46	0	3
SCL	46	0	3	96	96	4
TAP	46	0	4
TAP	46	96	1
TAP	46	192	2
BRK	46	240	0
BRK	46	288	0
TAP	47	0	3
STR	47	0	4
SI_	47	0	4	96	48	7
STR	47	96	3
SI_	47	96	3	96	48	0
TAP	47	96	4
TAP	47	192	3
STR	47	192	4
SI_	47	192	4	96	48	6
STR	47	288	3
SXR	47	288	3	96	96	4
TAP	47	288	4
TAP	48	0	3
STR	48	0	4
SCR	48	0	4	96	96	3
TAP	48	96	6
TAP	48	192	5
BRK	48	240	7
BRK	48	288	7
STR	49	0	3
SI_	49	0	3	96	48	0
TAP	49	0	4
TAP	49	96	3
STR	49	96	4
SI_	49	96	4	96	48	7
STR	49	192	3
SI_	49	192	3	96	48	1
TAP	49	192	4
TAP	49	288	3
STR	49	288	4
SXL	49	288	4	96	96	3
STR	50	0	3
SCL	50	0	3	96	96	4
TAP	50	0	4
TAP	50	96	1
TAP	50	192	2
BRK	50	240	0
BRK	50	288	0
STR	51	0	4
SF_	51	0	4	96	48	0
TAP	51	96	4
STR	51	192	3
SF_	51	192	3	96	48	7
TAP	51	288	3
BRK	52	0	2
HLD	52	0	7	192
BRK	52	96	1
BRK	52	192	0
BRK	52	288	1
BRK	52	288	6
HLD	53	0	4	144
HLD	53	0	5	288
HLD	53	192	4	48
TAP	53	288	4
HLD	54	0	2	288
HLD	54	0	3	144
HLD	54	192	3	48
TAP	54	288	3
HLD	55	0	5	192
TAP	55	96	4
TAP	55	144	3
HLD	55	192	2	192
TAP	55	288	3
TAP	55	336	4
STR	56	0	5
SUL	56	0	5	96	48	1
SUR	56	0	5	96	48	1
STR	56	192	2
SUL	56	192	2	96	48	6
SUR	56	192	2	96	48	6
HLD	57	0	6	288
HLD	57	0	7	144
TAP	57	192	7
TAP	57	240	7
TAP	57	288	7
HLD	58	0	0	144
HLD	58	0	1	288
TAP	58	192	0
TAP	58	240	0
TAP	58	288	0
STR	59	0	2
SI_	59	0	2	96	48	5
STR	59	0	6
SI_	59	0	6	96	48	1
STR	59	192	3
SI_	59	192	3	96	48	0
STR	59	192	7
SI_	59	192	7	96	48	4
STR	60	0	1
SI_	60	0	1	96	48	6
TAP	60	0	3
TAP	60	96	1
STR	60	96	5
SI_	60	96	5	96	48	2
TAP	60	192	5
TAP	60	192	7
BRK	60	288	1
BRK	60	288	6
STR	61	0	1
SI_	61	0	1	96	48	3
STR	61	96	0
SI_	61	96	0	96	48	4
STR	61	192	7
SI_	61	192	7	96	48	5
STR	62	0	6
SI_	62	0	6	96	48	4
STR	62	96	7
SI_	62	96	7	96	48	3
STR	62	192	0
SI_	62	192	0	96	48	2
STR	63	0	5
SCR	63	0	5	96	288	2
TAP	63	96	2
TAP	63	192	3
TAP	63	288	4
STR	64	0	5
SCR	64	0	5	96	288	2
TAP	64	96	2
TAP	64	192	3
TAP	64	288	4
STR	65	0	5
SXL	65	0	5	96	192	3
TAP	65	96	1
TAP	65	192	2
TAP	65	288	1
STR	66	0	2
SXR	66	0	2	96	192	4
TAP	66	96	6
TAP	66	144	6
TAP	66	192	5
TAP	66	288	6
STR	67	0	6
SCL	67	0	6	96	48	3
TAP	67	96	2
STR	67	192	1
SCR	67	192	1	96	48	4
TAP	67	288	5
HLD	68	0	7	288
HLD	68	192	0	96
BRK	69	0	1
BRK	69	0	6
TAP	69	48	2
TAP	69	96	3
TAP	69	96	4
TAP	69	144	5
TAP	69	192	1
TAP	69	192	6
TAP	69	240	2
TAP	69	256	4
TAP	69	272	2
TAP	69	288	4
TAP	69	336	3
TAP	70	0	1
TAP	70	0	6
TAP	70	48	5
TAP	70	64	3
TAP	70	80	5
STR	70	96	3
SI_	70	96	3	96	48	0
TAP	70	144	4
BRK	70	192	3
STR	70	192	4
SI_	70	192	4	96	48	7
BST	70	288	2
SI_	70	288	2	96	48	0
BRK	70	288	4
TAP	71	0	2
STR	71	0	3
SI_	71	0	3	96	48	7
STR	71	96	2
SI_	71	96	2	96	48	0
TAP	71	96	3
TAP	71	192	2
TAP	71	192	3
BRK	71	240	4
BRK	71	288	0
BST	71	288	4
SI_	71	288	4	96	48	0
STR	72	0	3
SI_	72	0	3	96	48	7
TAP	72	0	4
TAP	72	96	3
STR	72	96	4
SI_	72	96	4	96	48	0
TAP	72	192	3
TAP	72	192	4
TAP	72	288	1
STR	72	288	5
SI_	72	288	5	96	48	7
STR	73	0	4
SI_	73	0	4	96	48	0
TAP	73	0	5
TAP	73	96	4
STR	73	96	5
SI_	73	96	5	96	48	7
TAP	73	192	4
TAP	73	192	5
BRK	73	240	3
BST	73	288	3
SI_	73	288	3	96	48	7
BRK	73	288	7
TAP	74	0	3
STR	74	0	4
SI_	74	0	4	96	48	0
STR	74	96	3
SI_	74	96	3	96	48	7
TAP	74	96	4
TAP	74	192	3
TAP	74	192	4
BST	74	288	2
SI_	74	288	2	96	48	0
BRK	74	288	6
TAP	75	0	2
STR	75	0	3
SI_	75	0	3	96	48	7
STR	75	96	2
SI_	75	96	2	96	48	0
TAP	75	96	3
TAP	75	192	2
TAP	75	192	3
BRK	75	240	4
BRK	75	288	0
BST	75	288	4
SI_	75	288	4	96	48	0
STR	76	0	3
SI_	76	0	3	96	48	7
TAP	76	0	4
TAP	76	96	3
STR	76	96	4
SI_	76	96	4	96	48	0
TAP	76	192	3
TAP	76	192	4
STR	76	288	3
SV_	76	288	3	96	96	4
STR	76	288	7
SLR	76	288	7	96	96	5
STR	77	192	0
SI_	77	192	0	96	48	6
SLR	77	192	0	96	48	4
TAP	78	0	0
TAP	78	0	2
TAP	78	72	5
TAP	78	72	7
TAP	78	144	3
TAP	78	144	4
TAP	78	192	3
TAP	78	192	4
BRK	78	288	1
BRK	78	288	6
STR	79	0	3
SI_	79	0	3	96	48	7
STR	79	0	4
SI_	79	0	4	96	48	6
STR	79	96	3
SCL	79	96	3	96	48	1
STR	79	96	4
SUL	79	96	4	96	48	0
STR	79	192	3
SUR	79	192	3	96	48	7
STR	79	192	4
SCR	79	192	4	96	48	6
BST	79	288	3
SI_	79	288	3	96	48	1
BST	79	288	4
SI_	79	288	4	96	48	0
STR	80	0	3
SUR	80	0	3	96	48	7
STR	80	0	4
SCR	80	0	4	96	48	6
TAP	80	96	3
TAP	80	96	4
BRK	80	192	0
BRK	80	192	5
BST	80	288	3
SUR	80	288	3	96	48	7
BST	80	288	4
SCR	80	288	4	96	48	6
STR	81	0	3
SI_	81	0	3	96	48	1
STR	81	0	4
SI_	81	0	4	96	48	0
STR	81	96	3
SUR	81	96	3	96	48	7
STR	81	96	4
SCR	81	96	4	96	48	6
STR	81	192	3
SCL	81	192	3	96	48	1
STR	81	192	4
SUL	81	192	4	96	48	0
BST	81	288	3
SI_	81	288	3	96	48	7
BST	81	288	4
SI_	81	288	4	96	48	6
STR	82	0	3
SCL	82	0	3	96	48	1
STR	82	0	4
SUL	82	0	4	96	48	0
STR	82	96	3
SUR	82	96	3	96	48	7
STR	82	96	4
SCR	82	96	4	96	48	6
TAP	82	192	3
TAP	82	192	4
BRK	82	288	1
BRK	82	288	6
HLD	83	0	1	96
HLD	83	0	5	96
HLD	83	192	3	96
HLD	83	192	7	96
TAP	84	0	3
TAP	84	0	7
TAP	84	48	2
TAP	84	48	6
TAP	84	96	1
TAP	84	96	5
TAP	84	144	0
TAP	84	144	4
STR	84	192	3
SCR	84	192	3	96	48	6
STR	84	192	7
SCR	84	192	7	96	48	2
TAP	84	288	3
TAP	84	288	7
TAP	85	0	3
TAP	85	24	4
TAP	85	48	3
TAP	85	72	4
TAP	85	96	2
TAP	85	120	5
TAP	85	144	2
TAP	85	168	5
TAP	85	192	1
TAP	85	216	6
TAP	85	240	1
TAP	85	264	6
TAP	85	288	0
TAP	85	312	7
TAP	85	336	0
TAP	85	360	7
TAP	86	0	1
TAP	86	12	2
TAP	86	24	3
TAP	86	36	4
TAP	86	48	5
TAP	86	60	6
TAP	86	72	7
TAP	86	84	0
TAP	86	96	1
TAP	86	108	2
TAP	86	120	3
TAP	86	132	4
TAP	86	144	5
TAP	86	156	6
TAP	86	168	7
TAP	86	180	0
TAP	86	192	1
TAP	86	192	6
BRK	86	288	0
BRK	86	288	7
STR	87	0	4
SI_	87	0	4	96	48	7
TAP	87	0	5
TAP	87	96	3
STR	87	96	4
SI_	87	96	4	96	48	1
STR	87	192	4
SCR	87	192	4	96	48	7
TAP	87	192	5
TAP	87	288	3
STR	87	288	4
SCL	87	288	4	96	48	1
STR	88	0	4
SI_	88	0	4	96	48	7
TAP	88	0	5
TAP	88	96	3
STR	88	96	4
SI_	88	96	4	96	48	0
TAP	88	192	4
TAP	88	192	5
BRK	88	240	7
BRK	88	288	7
TAP	89	0	2
STR	89	0	3
SI_	89	0	3	96	48	0
STR	89	96	3
SI_	89	96	3	96	48	6
TAP	89	96	4
TAP	89	192	2
STR	89	192	3
SCL	89	192	3	96	48	0
STR	89	288	3
SCR	89	288	3	96	48	6
TAP	89	288	4
TAP	90	0	2
STR	90	0	3
SI_	90	0	3	96	48	0
STR	90	96	3
SI_	90	96	3	96	48	7
TAP	90	96	4
TAP	90	192	2
TAP	90	192	3
BRK	90	240	0
BRK	90	288	0
STR	91	0	4
SI_	91	0	4	96	48	7
TAP	91	0	5
TAP	91	96	3
STR	91	96	4
SI_	91	96	4	96	48	1
STR	91	192	4
SCR	91	192	4	96	48	7
TAP	91	192	5
TAP	91	288	3
STR	91	288	4
SCL	91	288	4	96	48	1
STR	92	0	4
SI_	92	0	4	96	48	7
TAP	92	0	5
TAP	92	96	3
STR	92	96	4
SI_	92	96	4	96	48	0
TAP	92	192	4
TAP	92	192	5
BRK	92	240	7
BRK	92	288	7
STR	93	0	3
SF_	93	0	3	96	48	7
TAP	93	0	7
TAP	93	96	3
TAP	93	192	0
STR	93	192	4
SF_	93	192	4	96	48	0
TAP	93	288	4
BRK	94	0	2
HLD	94	0	7	192
BRK	94	96	1
BRK	94	192	0
BRK	94	288	1
BRK	94	288	6

T_REC_TAP	281
T_REC_BRK	77
T_REC_XTP	0
T_REC_HLD	45
T_REC_XHO	0
T_REC_STR	165
T_REC_BST	24
T_REC_XST	0
T_REC_TTP	0
T_REC_THO	0
T_REC_SLD	193
T_REC_ALL	785
T_NUM_TAP	446
T_NUM_BRK	101
T_NUM_HLD	45
T_NUM_SLD	193
T_NUM_ALL	785
T_JUDGE_TAP	547
T_JUDGE_HLD	137
T_JUDGE_SLD	193
T_JUDGE_ALL	877
TTM_EACHPAIRS	172
TTM_SCR_TAP	223000
TTM_SCR_BRK	262600
TTM_SCR_HLD	45000
TTM_SCR_SLD	289500
TTM_SCR_ALL	820100
TTM_SCR_S	785700
TTM_SCR_SS	810000
TTM_RAT_ACV	10124

