VERSION	0.00.00	1.03.00
FES_MODE	0
BPM_DEF	160.000	160.000	160.000	160.000
MET_DEF	4	4
RESOLUTION	384
CLK_DEF	384
COMPATIBLE_CODE	MA2

BPM	0	0	160.000
MET	0	0	4	4

BRK	2	288	1
BRK	2	288	6
TAP	3	0	2
TAP	3	0	3
TAP	3	96	0
TAP	3	192	2
TAP	3	240	2
TAP	3	288	2
TAP	3	288	3
HLD	4	0	4	96
HLD	4	96	5	96
HLD	4	192	6	96
BRK	4	288	7
TAP	5	0	4
TAP	5	0	5
TAP	5	96	7
TAP	5	192	5
TAP	5	240	5
TAP	5	288	4
TAP	5	288	5
HLD	6	0	3	96
HLD	6	96	2	96
HLD	6	192	1	96
BRK	6	288	0
TAP	7	0	2
TAP	7	0	3
TAP	7	96	0
TAP	7	192	2
TAP	7	240	2
TAP	7	288	2
TAP	7	288	3
HLD	8	0	5	96
HLD	8	96	6	96
HLD	8	192	7	96
BRK	8	288	0
TAP	9	0	3
TAP	9	0	4
TAP	9	96	6
TAP	9	96	7
TAP	9	192	3
TAP	9	192	4
TAP	9	288	0
TAP	9	288	1
BRK	10	0	2
HLD	10	0	4	192
BRK	10	96	1
BRK	10	192	0
BRK	10	288	1
BRK	10	288	6
TAP	11	0	5
TAP	11	48	4
TAP	11	96	5
TAP	11	192	2
TAP	11	240	3
TAP	11	288	2
HLD	12	0	6	288
TAP	12	96	3
TAP	12	192	4
TAP	12	288	5
TAP	13	0	2
TAP	13	48	3
TAP	13	96	2
TAP	13	192	5
TAP	13	240	4
TAP	13	288	5
HLD	14	0	1	288
TAP	14	96	4
TAP	14	192	3
TAP	14	288	2
TAP	15	0	6
TAP	15	48	7
TAP	15	96	6
TAP	15	192	1
TAP	15	240	0
TAP	15	288	1
HLD	16	0	5	288
TAP	16	96	0
TAP	16	192	7
TAP	16	288	6
TAP	17	0	2
TAP	17	0	7
TAP	17	192	0
TAP	17	192	5
TAP	18	0	3
TAP	18	0	4
TAP	18	96	2
TAP	18	96	5
TAP	18	192	1
TAP	18	192	6
BRK	18	288	0
BRK	18	288	7
HLD	19	0	6	192
STR	19	0	7
SCR	19	0	7	96	96	2
STR	20	0	0
SCL	20	0	0	96	96	5
HLD	20	0	1	192
HLD	21	0	6	192
STR	21	0	7
SCR	21	0	7	96	96	2
STR	22	0	0
SCL	22	0	0	96	96	5
HLD	22	0	1	192
HLD	23	0	4	192
STR	23	0	5
SCR	23	0	5	96	96	0
STR	24	0	2
SCL	24	0	2	96	96	7
HLD	24	0	3	192
HLD	25	0	4	192
STR	25	0	5
SCR	25	0	5	96	96	0
STR	26	0	2
SCL	26	0	2	96	96	7
HLD	26	0	3	192
BST	27	0	0
SCR	27	0	0	96	384	7
BST	27	0	7
SCL	27	0	7	96	384	0
BRK	28	192	3
BRK	28	192	4
BRK	28	288	1
BRK	28	288	6
HLD	29	0	3	72
HLD	29	72	1	72
TAP	29	144	0
TAP	29	192	0
BRK	29	288	0
BRK	29	288	5
TAP	30	0	6
TAP	30	0	7
TAP	30	96	0
TAP	30	96	1
TAP	30	192	0
TAP	30	192	5
TAP	30	288	2
TAP	30	288	7
HLD	31	0	4	72
HLD	31	72	6	72
TAP	31	144	7
TAP	31	192	7
BRK	31	288	2
BRK	31	288	7
TAP	32	0	0
TAP	32	0	1
TAP	32	96	6
TAP	32	96	7
STR	32	192	0
SI_	32	192	0	96	48	5
TAP	32	192	1
HLD	33	0	2	72
HLD	33	72	0	72
TAP	33	144	7
TAP	33	192	7
BRK	33	288	0
BRK	33	288	7
TAP	34	0	0
TAP	34	0	1
TAP	34	96	6
TAP	34	96	7
TAP	34	192	2
TAP	34	192	7
TAP	34	288	0
TAP	34	288	5
HLD	35	0	1	96
HLD	35	0	3	96
HLD	35	192	4	96
HLD	35	192	6	96
TAP	36	0	2
TAP	36	0	5
TAP	36	72	3
TAP	36	72	4
TAP	36	144	2
TAP	36	144	5
TAP	36	192	2
TAP	36	192	5
BRK	36	288	0
BRK	36	288	7
STR	37	0	5
SI_	37	0	5	96	48	0
STR	37	96	4
SI_	37	96	4	96	48	1
STR	37	192	5
SI_	37	192	5	96	48	0
STR	37	288	4
SI_	37	288	4	96	48	1
STR	38	0	5
SI_	38	0	5	96	48	0
STR	38	96	4
SI_	38	96	4	96	48	1
STR	38	192	5
SI_	38	192	5	96	48	0
TAP	38	288	4
STR	39	0	2
SI_	39	0	2	96	48	7
STR	39	96	3
SI_	39	96	3	96	48	6
STR	39	192	2
SI_	39	192	2	96	48	7
STR	39	288	3
SI_	39	288	3	96	48	6
STR	40	0	2
SI_	40	0	2	96	48	7
STR	40	96	3
SI_	40	96	3	96	48	6
STR	40	192	2
SI_	40	192	2	96	48	7
TAP	40	288	3
STR	41	0	4
SI_	41	0	4	96	48	7
TAP	41	0	5
TAP	41	192	2
STR	41	192	3
SI_	41	192	3	96	48	0
TAP	42	0	2
TAP	42	48	2
TAP	42	96	3
TAP	42	144	3
TAP	42	192	4
TAP	42	240	4
TAP	42	288	5
TAP	42	336	5
HLD	43	0	6	96
HLD	43	0	7	96
HLD	43	192	0	96
HLD	43	192	1	96
TAP	44	0	1
TAP	44	0	6
TAP	44	72	3
TAP	44	72	4
TAP	44	144	2
TAP	44	144	5
TAP	44	192	2
TAP	44	192	5
BRK	44	288	0
BRK	44	288	7
TAP	45	0	5
TAP	45	48	5
TAP	45	96	4
TAP	45	96	5
TAP	45	192	2
TAP	45	240	2
TAP	45	288	2
TAP	45	288	3
HLD	46	0	4	96
HLD	46	96	5	96
HLD	46	192	6	96
BRK	46	288	7
TAP	47	0	2
TAP	47	48	2
TAP	47	96	2
TAP	47	96	3
TAP	47	192	5
TAP	47	240	5
TAP	47	288	4
TAP	47	288	5
HLD	48	0	3	96
HLD	48	96	2	96
HLD	48	192	1	96
BRK	48	288	0
TAP	49	0	5
TAP	49	48	5
TAP	49	96	4
TAP	49	96	5
TAP	49	192	2
TAP	49	240	2
TAP	49	288	2
TAP	49	288	3
HLD	50	0	5	96
HLD	50	96	6	96
HLD	50	192	7	96
BRK	50	288	0
TAP	51	0	2
TAP	51	48	2
TAP	51	96	2
TAP	51	96	3
TAP	51	192	5
TAP	51	240	5
TAP	51	288	4
TAP	51	288	5
BRK	52	0	2
HLD	52	0	4	192
BRK	52	96	1
BRK	52	192	0
BRK	52	288	1
BRK	52	288	6
HLD	53	0	2	96
HLD	53	0	5	576
HLD	53	192	3	96
TAP	54	0	4
TAP	54	96	4
TAP	54	192	4
HLD	55	0	2	576
HLD	55	0	5	96
HLD	55	192	4	96
TAP	56	0	3
TAP	56	96	3
TAP	56	192	3
HLD	57	0	1	96
HLD	57	0	6	576
HLD	57	192	0	96
TAP	58	0	7
TAP	58	96	7
TAP	58	192	7
TAP	59	0	6
TAP	59	0	7
TAP	59	192	0
TAP	59	192	1
TAP	60	0	3
TAP	60	0	4
TAP	60	96	2
TAP	60	96	5
TAP	60	192	1
TAP	60	192	6
BRK	60	288	0
BRK	60	288	7
STR	61	0	2
SCL	61	0	2	96	96	6
HLD	61	0	4	192
HLD	62	0	3	192
STR	62	0	5
SCR	62	0	5	96	96	1
STR	63	0	2
SCL	63	0	2	96	96	6
HLD	63	0	4	192
HLD	64	0	3	192
STR	64	0	5
SCR	64	0	5	96	96	1
HLD	65	0	0	192
STR	65	0	2
SCR	65	0	2	96	96	6
STR	66	0	5
SCL	66	0	5	96	96	1
HLD	66	0	7	192
HLD	67	0	0	192
STR	67	0	2
SCR	67	0	2	96	96	6
STR	68	0	5
SCL	68	0	5	96	96	1
HLD	68	0	7	192
BST	69	0	3
SCL	69	0	3	96	384	4
BST	69	0	4
SCR	69	0	4	96	384	3
BRK	70	192	3
BRK	70	192	4
BRK	70	288	1
BRK	70	288	6
HLD	71	0	0	72
HLD	71	72	7	72
TAP	71	144	5
TAP	71	192	5
BRK	71	288	0
BRK	71	288	4
TAP	72	0	1
TAP	72	48	1
TAP	72	96	0
TAP	72	96	2
TAP	72	192	6
TAP	72	240	6
TAP	72	288	5
TAP	72	288	7
HLD	73	0	7	72
HLD	73	72	0	72
TAP	73	144	2
TAP	73	192	2
BRK	73	288	3
BRK	73	288	7
TAP	74	0	6
TAP	74	48	6
TAP	74	96	5
TAP	74	96	7
STR	74	192	1
SI_	74	192	1	96	48	4
TAP	74	192	7
HLD	75	0	0	72
HLD	75	72	7	72
TAP	75	144	5
TAP	75	192	5
BRK	75	288	0
BRK	75	288	4
TAP	76	0	1
TAP	76	48	1
TAP	76	96	0
TAP	76	96	2
TAP	76	192	6
TAP	76	240	6
TAP	76	288	5
TAP	76	288	7
HLD	77	0	1	96
HLD	77	0	3	96
HLD	77	192	4	96
HLD	77	192	6	96
TAP	78	0	1
TAP	78	0	6
TAP	78	72	3
TAP	78	72	4
TAP	78	144	2
TAP	78	144	5
TAP	78	192	2
TAP	78	192	5
BRK	78	288	0
BRK	78	288	7
STR	79	0	3
SI_	79	0	3	96	48	1
STR	79	96	4
SI_	79	96	4	96	48	6
STR	79	192	3
SI_	79	192	3	96	48	0
STR	79	288	4
SI_	79	288	4	96	48	7
STR	80	0	3
SI_	80	0	3	96	48	1
STR	80	96	4
SI_	80	96	4	96	48	6
STR	80	192	3
SI_	80	192	3	96	48	0
TAP	80	288	7
STR	81	0	4
SI_	81	0	4	96	48	6
STR	81	96	3
SI_	81	96	3	96	48	1
STR	81	192	4
SI_	81	192	4	96	48	7
STR	81	288	3
SI_	81	288	3	96	48	0
STR	82	0	4
SI_	82	0	4	96	48	6
STR	82	96	3
SI_	82	96	3	96	48	1
STR	82	192	4
SI_	82	192	4	96	48	7
TAP	82	288	0
TAP	83	0	2
STR	83	0	3
SI_	83	0	3	96	48	0
STR	83	192	4
SI_	83	192	4	96	48	7
TAP	83	192	5
TAP	84	0	1
TAP	84	48	1
TAP	84	96	0
TAP	84	144	0
TAP	84	192	7
TAP	84	240	7
TAP	84	288	6
TAP	84	336	6
STR	85	0	0
SCR	85	0	0	96	96	3
STR	85	0	7
SCL	85	0	7	96	96	4
TAP	85	288	0
TAP	85	288	7
TAP	86	0	1
TAP	86	0	6
TAP	86	72	3
TAP	86	72	4
TAP	86	144	2
TAP	86	144	5
TAP	86	192	2
TAP	86	192	5
BRK	86	288	0
BRK	86	288	7
TAP	87	0	6
TAP	87	48	6
TAP	87	96	6
TAP	87	96	7
TAP	87	192	1
TAP	87	240	1
TAP	87	288	0
TAP	87	288	1
TAP	88	0	6
TAP	88	48	6
TAP	88	96	3
TAP	88	144	3
TAP	88	192	4
BRK	88	288	0
BRK	88	288	6
TAP	89	0	1
TAP	89	48	1
TAP	89	96	0
TAP	89	96	1
TAP	89	192	6
TAP	89	240	6
TAP	89	288	6
TAP	89	288	7
TAP	90	0	1
TAP	90	48	1
TAP	90	96	4
TAP	90	144	4
TAP	90	192	3
BRK	90	288	1
BRK	90	288	7
TAP	91	0	6
TAP	91	48	6
TAP	91	96	6
TAP	91	96	7
TAP	91	192	1
TAP	91	240	1
TAP	91	288	0
TAP	91	288	1
TAP	92	0	5
TAP	92	48	5
TAP	92	96	2
TAP	92	144	2
TAP	92	192	4
BRK	92	288	0
BRK	92	288	6
TAP	93	0	6
TAP	93	0	7
TAP	93	96	4
TAP	93	96	5
TAP	93	192	2
TAP	93	192	3
TAP	93	288	0
TAP	93	288	1
BRK	94	0	2
HLD	94	0	4	192
BRK	94	96	1
BRK	94	192	0
BRK	94	288	1
BRK	94	288	6

T_REC_TAP	276
T_REC_BRK	61
T_REC_XTP	0
T_REC_HLD	73
T_REC_XHO	0
T_REC_STR	52
T_REC_BST	4
T_REC_XST	0
T_REC_TTP	0
T_REC_THO	0
T_REC_SLD	56
T_REC_ALL	522
T_NUM_TAP	328
T_NUM_BRK	65
T_NUM_HLD	73
T_NUM_SLD	56
T_NUM_ALL	522
T_JUDGE_TAP	393
T_JUDGE_HLD	226
T_JUDGE_SLD	56
T_JUDGE_ALL	675
TTM_EACHPAIRS	130
TTM_SCR_TAP	164000
TTM_SCR_BRK	169000
TTM_SCR_HLD	73000
TTM_SCR_SLD	84000
TTM_SCR_ALL	490000
TTM_SCR_S	469000
TTM_SCR_SS	483500
TTM_RAT_ACV	10134

