VERSION	0.00.00	1.03.00
FES_MODE	0
BPM_DEF	160.000	160.000	160.000	160.000
MET_DEF	4	4
RESOLUTION	384
CLK_DEF	384
COMPATIBLE_CODE	MA2

BPM	0	0	160.000
MET	0	0	4	4

BRK	2	288	7
TAP	3	0	1
TAP	3	96	1
TAP	3	192	0
TAP	3	288	0
TAP	4	0	7
TAP	4	96	6
TAP	4	192	0
TAP	4	192	5
TAP	5	0	6
TAP	5	96	6
TAP	5	192	7
TAP	5	288	7
TAP	6	0	0
TAP	6	96	1
TAP	6	192	2
TAP	6	192	7
TAP	7	0	2
TAP	7	96	2
TAP	7	192	3
TAP	7	288	3
TAP	8	0	4
TAP	8	96	5
TAP	8	192	3
TAP	8	192	6
TAP	9	0	4
TAP	9	96	4
TAP	9	192	3
TAP	9	288	3
TAP	10	0	2
TAP	10	96	1
TAP	10	192	0
BRK	10	288	1
BRK	10	288	7
TAP	11	0	6
TAP	11	96	6
TAP	11	192	5
TAP	11	192	7
TAP	12	0	1
TAP	12	96	1
TAP	12	192	0
TAP	12	192	2
TAP	13	0	6
TAP	13	96	6
TAP	13	192	7
TAP	13	288	7
TAP	14	0	0
TAP	14	96	7
TAP	14	192	1
TAP	14	192	6
TAP	15	0	2
TAP	15	96	2
TAP	15	192	1
TAP	15	192	3
TAP	16	0	5
TAP	16	96	5
TAP	16	192	4
TAP	16	192	6
TAP	17	0	2
TAP	17	0	3
TAP	17	192	4
TAP	17	192	5
TAP	18	0	3
TAP	18	0	4
TAP	18	96	2
TAP	18	96	5
TAP	18	192	1
TAP	18	192	6
BRK	18	288	0
BRK	18	288	7
HLD	19	0	6	192
TAP	19	192	7
TAP	20	0	5
TAP	20	96	4
TAP	20	192	3
TAP	20	192	6
HLD	21	0	1	192
TAP	21	192	0
TAP	22	0	2
TAP	22	96	3
TAP	22	192	1
TAP	22	192	4
HLD	23	0	5	192
TAP	23	192	4
HLD	24	0	2	192
TAP	24	192	3
HLD	25	0	4	192
HLD	25	0	6	192
HLD	26	0	1	192
HLD	26	0	3	192
STR	27	0	2
SLL	27	0	2	96	288	3
STR	27	0	5
SLR	27	0	5	96	288	4
TAP	28	192	2
TAP	28	192	5
TAP	28	288	0
TAP	28	288	7
TAP	29	0	2
TAP	29	96	3
TAP	29	192	1
TAP	29	192	4
BRK	29	288	6
BRK	29	288	7
TAP	30	0	2
TAP	30	0	5
TAP	30	96	0
TAP	30	96	1
TAP	30	192	2
TAP	30	192	5
TAP	30	288	6
TAP	30	288	7
TAP	31	0	5
TAP	31	96	4
TAP	31	192	3
TAP	31	192	6
BRK	31	288	0
BRK	31	288	1
TAP	32	0	2
TAP	32	0	3
TAP	32	96	4
TAP	32	96	5
TAP	32	192	2
TAP	32	192	3
TAP	33	0	3
TAP	33	96	4
TAP	33	192	2
TAP	33	192	5
BRK	33	288	0
BRK	33	288	7
TAP	34	0	2
TAP	34	0	3
TAP	34	96	4
TAP	34	96	5
TAP	34	192	3
TAP	34	192	6
TAP	35	0	1
TAP	35	0	3
TAP	35	192	4
TAP	35	192	6
TAP	36	0	3
TAP	36	0	4
TAP	36	96	2
TAP	36	96	5
TAP	36	192	1
TAP	36	192	6
BRK	36	288	0
BRK	36	288	7
TAP	37	0	1
TAP	37	96	0
TAP	37	96	1
TAP	37	192	2
TAP	37	192	3
BRK	37	288	0
BRK	37	288	5
TAP	38	0	1
TAP	38	0	6
TAP	38	96	2
TAP	38	96	3
TAP	38	192	1
TAP	38	192	6
TAP	38	288	4
TAP	38	288	5
TAP	39	0	6
TAP	39	96	6
TAP	39	96	7
TAP	39	192	4
TAP	39	192	5
BRK	39	288	2
BRK	39	288	7
TAP	40	0	4
TAP	40	0	5
TAP	40	96	2
TAP	40	96	3
TAP	40	192	1
TAP	40	192	4
HLD	41	0	5	96
TAP	41	96	4
HLD	41	192	2	96
TAP	41	288	3
HLD	42	0	5	96
TAP	42	96	4
TAP	42	192	3
TAP	42	192	6
TAP	43	0	5
TAP	43	96	6
TAP	43	192	0
TAP	43	192	7
TAP	43	288	0
TAP	43	288	7
TAP	44	0	2
TAP	44	96	1
TAP	44	192	0
TAP	44	192	7
BRK	44	288	1
BRK	44	288	6
TAP	45	0	7
TAP	45	96	7
TAP	45	192	6
TAP	45	288	6
TAP	46	0	5
TAP	46	96	4
TAP	46	192	3
TAP	46	192	6
TAP	47	0	0
TAP	47	96	0
TAP	47	192	1
TAP	47	288	1
TAP	48	0	2
TAP	48	96	3
TAP	48	192	1
TAP	48	192	4
TAP	49	0	4
TAP	49	96	4
TAP	49	192	5
TAP	49	288	5
TAP	50	0	6
TAP	50	96	7
TAP	50	192	0
TAP	50	192	5
TAP	51	0	4
TAP	51	96	4
TAP	51	192	3
TAP	51	288	3
TAP	52	0	2
TAP	52	96	1
TAP	52	192	0
BRK	52	288	1
BRK	52	288	7
STR	53	0	0
SI_	53	0	0	96	144	4
TAP	53	0	6
TAP	54	0	1
STR	54	0	7
SI_	54	0	7	96	144	3
STR	55	0	0
SI_	55	0	0	96	144	4
TAP	55	0	6
TAP	56	0	5
TAP	56	96	4
TAP	56	192	2
TAP	56	288	3
TAP	57	0	2
STR	57	0	4
SI_	57	0	4	96	144	0
STR	58	0	3
SI_	58	0	3	96	144	7
TAP	58	0	5
HLD	59	0	0	192
HLD	59	0	7	192
TAP	60	0	1
TAP	60	0	6
TAP	60	96	2
TAP	60	96	5
TAP	60	192	3
TAP	60	192	4
BRK	60	288	1
BRK	60	288	6
HLD	61	0	2	192
HLD	61	192	3	192
TAP	62	0	2
TAP	62	96	2
TAP	62	192	1
TAP	62	192	4
HLD	63	0	5	192
HLD	63	192	4	192
TAP	64	0	5
TAP	64	96	5
TAP	64	192	3
TAP	64	192	6
HLD	65	0	1	192
HLD	65	192	0	192
TAP	66	0	1
TAP	66	96	1
TAP	66	192	2
TAP	66	192	7
HLD	67	0	7	192
HLD	67	192	0	192
TAP	68	0	7
TAP	68	192	1
TAP	68	192	6
STR	69	0	2
SLL	69	0	2	96	288	3
STR	69	0	5
SLR	69	0	5	96	288	4
TAP	70	192	2
TAP	70	192	5
TAP	70	288	0
TAP	70	288	7
HLD	71	0	2	96
TAP	71	96	3
TAP	71	192	1
TAP	71	192	4
BRK	71	288	6
BRK	71	288	7
TAP	72	0	2
TAP	72	0	5
TAP	72	96	0
TAP	72	96	1
TAP	72	192	2
TAP	72	192	5
TAP	72	288	6
TAP	72	288	7
HLD	73	0	5	96
TAP	73	96	4
TAP	73	192	3
TAP	73	192	6
BRK	73	288	0
BRK	73	288	1
TAP	74	0	2
TAP	74	0	3
TAP	74	96	4
TAP	74	96	5
TAP	74	192	1
TAP	74	192	3
HLD	75	0	4	96
TAP	75	96	3
TAP	75	192	2
TAP	75	192	5
BRK	75	288	0
BRK	75	288	7
TAP	76	0	2
TAP	76	0	3
TAP	76	96	4
TAP	76	96	5
TAP	76	192	3
TAP	76	192	6
TAP	77	0	1
TAP	77	0	3
TAP	77	192	4
TAP	77	192	6
TAP	78	0	3
TAP	78	0	4
TAP	78	96	2
TAP	78	96	5
TAP	78	192	1
TAP	78	192	6
BRK	78	288	0
BRK	78	288	7
HLD	79	0	1	96
TAP	79	96	0
TAP	79	192	2
TAP	79	192	3
BRK	79	288	6
BRK	79	288	7
TAP	80	0	3
TAP	80	0	4
TAP	80	96	0
TAP	80	96	1
TAP	80	192	3
TAP	80	192	4
TAP	80	288	6
TAP	80	288	7
HLD	81	0	5	96
TAP	81	96	4
TAP	81	192	3
TAP	81	192	6
BRK	81	288	0
BRK	81	288	1
TAP	82	0	6
TAP	82	0	7
TAP	82	96	0
TAP	82	96	5
TAP	82	192	1
TAP	82	192	4
HLD	83	0	6	96
TAP	83	96	7
HLD	83	192	1	96
TAP	83	288	0
HLD	84	0	6	96
TAP	84	96	7
TAP	84	192	0
TAP	84	192	5
TAP	84	288	1
TAP	84	288	4
HLD	85	0	2	96
HLD	85	0	3	96
HLD	85	192	4	96
HLD	85	192	5	96
TAP	86	0	2
TAP	86	0	5
TAP	86	96	1
TAP	86	96	6
TAP	86	192	0
TAP	86	192	7
BRK	86	288	1
BRK	86	288	6
TAP	87	0	2
TAP	87	96	3
TAP	87	192	4
TAP	87	288	3
TAP	87	288	5
TAP	88	0	6
TAP	88	96	5
TAP	88	192	3
TAP	88	192	4
TAP	89	0	5
TAP	89	96	4
TAP	89	192	3
TAP	89	288	2
TAP	89	288	4
TAP	90	0	1
TAP	90	96	2
TAP	90	192	3
TAP	90	192	4
TAP	91	0	1
TAP	91	96	0
TAP	91	192	7
TAP	91	288	0
TAP	91	288	6
TAP	92	0	5
TAP	92	96	6
TAP	92	192	0
TAP	92	192	7
TAP	93	0	6
TAP	93	96	7
TAP	93	192	0
TAP	93	288	1
TAP	93	288	7
TAP	94	0	2
TAP	94	96	1
TAP	94	192	0
TAP	94	192	7
BRK	94	288	1
BRK	94	288	6

T_REC_TAP	335
T_REC_BRK	39
T_REC_XTP	0
T_REC_HLD	33
T_REC_XHO	0
T_REC_STR	9
T_REC_BST	0
T_REC_XST	0
T_REC_TTP	0
T_REC_THO	0
T_REC_SLD	9
T_REC_ALL	425
T_NUM_TAP	344
T_NUM_BRK	39
T_NUM_HLD	33
T_NUM_SLD	9
T_NUM_ALL	425
T_JUDGE_TAP	383
T_JUDGE_HLD	102
T_JUDGE_SLD	9
T_JUDGE_ALL	494
TTM_EACHPAIRS	133
TTM_SCR_TAP	172000
TTM_SCR_BRK	101400
TTM_SCR_HLD	33000
TTM_SCR_SLD	13500
TTM_SCR_ALL	319900
TTM_SCR_S	306550
TTM_SCR_SS	316000
TTM_RAT_ACV	10123

