VERSION	0.00.00	1.03.00
FES_MODE	0
BPM_DEF	160.000	160.000	160.000	160.000
MET_DEF	4	4
RESOLUTION	384
CLK_DEF	384
COMPATIBLE_CODE	MA2

BPM	0	0	160.000
MET	0	0	4	4

TAP	3	0	0
TAP	3	192	0
TAP	4	0	1
TAP	4	96	1
TAP	4	192	1
TAP	5	0	2
TAP	5	192	2
TAP	6	0	3
TAP	6	96	3
TAP	6	192	3
TAP	7	0	4
TAP	7	192	4
TAP	8	0	5
TAP	8	96	5
TAP	8	192	5
TAP	9	0	6
TAP	9	192	6
TAP	10	0	7
TAP	10	96	7
TAP	10	192	0
TAP	10	192	7
HLD	11	0	6	192
TAP	12	0	5
TAP	12	192	5
HLD	13	0	4	192
TAP	14	0	3
TAP	14	192	3
TAP	14	192	4
HLD	15	0	2	192
TAP	16	0	1
TAP	16	192	1
HLD	17	0	0	192
TAP	18	0	7
TAP	18	192	7
STR	19	0	0
SI_	19	0	0	96	288	3
STR	21	0	7
SI_	21	0	7	96	288	4
STR	23	0	3
SI_	23	0	3	96	288	0
STR	25	0	4
SI_	25	0	4	96	288	7
HLD	27	0	0	384
HLD	27	0	7	384
BRK	28	192	0
BRK	28	192	7
TAP	29	0	0
TAP	29	96	0
TAP	29	192	0
TAP	30	0	1
TAP	30	96	1
TAP	30	192	0
TAP	30	192	1
TAP	31	0	2
TAP	31	96	2
TAP	31	192	2
TAP	32	0	3
TAP	32	96	3
TAP	32	192	3
TAP	32	192	4
TAP	33	0	4
TAP	33	96	4
TAP	33	192	4
TAP	34	0	5
TAP	34	96	5
TAP	34	192	4
TAP	34	192	5
TAP	35	0	6
TAP	35	96	6
TAP	35	192	6
TAP	36	0	7
TAP	36	96	7
TAP	36	192	0
TAP	36	192	7
TAP	37	0	6
TAP	37	96	6
TAP	37	192	6
TAP	38	0	5
TAP	38	96	5
TAP	38	192	4
TAP	38	192	5
TAP	39	0	4
TAP	39	96	4
TAP	39	192	4
TAP	40	0	4
TAP	40	96	4
TAP	40	192	3
TAP	40	192	4
HLD	41	0	2	192
HLD	42	0	1	192
TAP	43	0	0
TAP	43	96	0
TAP	43	192	0
TAP	44	0	0
TAP	44	96	0
BRK	44	192	0
BRK	44	192	7
TAP	45	0	1
TAP	45	192	1
TAP	46	0	2
TAP	46	96	3
TAP	46	192	2
TAP	47	0	3
TAP	47	192	3
TAP	48	0	4
TAP	48	96	3
TAP	48	192	4
TAP	49	0	5
TAP	49	192	5
TAP	50	0	6
TAP	50	96	7
TAP	50	192	6
TAP	51	0	7
TAP	51	192	7
TAP	52	0	0
TAP	52	96	7
TAP	52	192	0
HLD	53	0	1	576
HLD	54	0	0	192
HLD	55	0	6	576
HLD	56	0	7	192
HLD	57	0	5	576
HLD	58	0	4	192
TAP	59	0	3
TAP	59	192	3
HLD	60	0	3	192
HLD	60	0	4	192
STR	61	0	3
SI_	61	0	3	96	288	0
STR	63	0	4
SI_	63	0	4	96	288	7
STR	65	0	0
SI_	65	0	0	96	288	3
STR	67	0	7
SI_	67	0	7	96	288	4
HLD	69	0	0	384
HLD	69	0	7	384
BRK	70	192	0
BRK	70	192	7
TAP	71	0	0
TAP	71	96	0
TAP	71	192	0
TAP	72	0	1
TAP	72	96	1
TAP	72	192	0
TAP	72	192	1
TAP	73	0	2
TAP	73	96	2
TAP	73	192	2
TAP	74	0	3
TAP	74	96	4
TAP	74	192	3
TAP	74	192	4
TAP	75	0	4
TAP	75	96	4
TAP	75	192	4
TAP	76	0	5
TAP	76	96	5
TAP	76	192	4
TAP	76	192	5
TAP	77	0	6
TAP	77	96	6
TAP	77	192	6
TAP	78	0	7
TAP	78	96	0
TAP	78	192	0
TAP	78	192	7
TAP	79	0	7
TAP	79	96	7
TAP	79	192	7
TAP	80	0	6
TAP	80	96	6
TAP	80	192	6
TAP	80	192	7
TAP	81	0	5
TAP	81	96	5
TAP	81	192	5
TAP	82	0	4
TAP	82	96	3
TAP	82	192	3
TAP	82	192	4
HLD	83	0	3	192
HLD	84	0	2	192
TAP	85	0	1
TAP	85	96	1
TAP	85	192	1
TAP	86	0	0
TAP	86	0	7
TAP	86	96	0
TAP	86	96	7
BRK	86	192	0
BRK	86	192	7
TAP	87	0	1
TAP	87	96	1
TAP	87	192	0
TAP	87	192	1
TAP	88	0	2
TAP	88	96	2
TAP	88	192	2
TAP	88	192	3
TAP	89	0	4
TAP	89	96	4
TAP	89	192	3
TAP	89	192	4
TAP	90	0	5
TAP	90	96	5
TAP	90	192	4
TAP	90	192	5
TAP	91	0	6
TAP	91	96	6
TAP	91	192	6
TAP	91	192	7
TAP	92	0	0
TAP	92	96	0
TAP	92	192	0
TAP	92	192	7
TAP	93	0	7
TAP	93	96	7
TAP	93	192	0
TAP	93	288	0
HLD	94	0	0	288
HLD	94	0	7	288

T_REC_TAP	176
T_REC_BRK	8
T_REC_XTP	0
T_REC_HLD	22
T_REC_XHO	0
T_REC_STR	8
T_REC_BST	0
T_REC_XST	0
T_REC_TTP	0
T_REC_THO	0
T_REC_SLD	8
T_REC_ALL	222
T_NUM_TAP	184
T_NUM_BRK	8
T_NUM_HLD	22
T_NUM_SLD	8
T_NUM_ALL	222
T_JUDGE_TAP	192
T_JUDGE_HLD	132
T_JUDGE_SLD	8
T_JUDGE_ALL	332
TTM_EACHPAIRS	30
TTM_SCR_TAP	92000
TTM_SCR_BRK	20800
TTM_SCR_HLD	22000
TTM_SCR_SLD	12000
TTM_SCR_ALL	146800
TTM_SCR_S	141650
TTM_SCR_SS	146000
TTM_RAT_ACV	10054

