VERSION	0.00.00	1.03.00
FES_MODE	0
BPM_DEF	170.000	170.000	170.000	170.000
MET_DEF	4	4
RESOLUTION	384
CLK_DEF	384
COMPATIBLE_CODE	MA2

BPM	0	0	170.000
MET	0	0	4	4

TAP	3	0	1
TAP	3	48	2
TAP	3	96	3
TAP	3	144	4
TAP	3	192	3
TAP	3	240	2
TAP	3	288	1
TAP	3	288	3
TAP	4	0	6
TAP	4	48	5
TAP	4	96	4
TAP	4	144	3
TAP	4	192	4
TAP	4	240	5
TAP	4	288	4
TAP	4	288	6
STR	5	0	1
SI_	5	0	1	96	48	4
TAP	5	48	7
TAP	5	96	7
STR	5	192	6
SI_	5	192	6	96	48	3
TAP	5	240	0
TAP	5	288	0
STR	6	0	1
SI_	6	0	1	96	48	4
TAP	6	48	7
TAP	6	96	7
STR	6	192	6
SI_	6	192	6	96	48	3
TAP	6	240	0
TAP	6	288	0
STR	7	0	1
SI_	7	0	1	96	48	4
TAP	7	48	0
TAP	7	96	7
STR	7	192	6
SI_	7	192	6	96	48	3
TAP	7	240	7
TAP	7	288	0
STR	8	0	1
SI_	8	0	1	96	48	4
TAP	8	48	0
TAP	8	96	7
TAP	8	192	3
TAP	8	192	6
TAP	8	240	5
TAP	8	264	4
TAP	8	288	6
TAP	8	336	2
TAP	8	360	3
BRK	9	0	1
TAP	9	96	1
TAP	9	96	7
STR	9	192	4
SI_	9	192	4	96	48	0
TAP	9	240	3
TAP	9	288	2
STR	10	0	3
SI_	10	0	3	96	48	7
TAP	10	48	4
TAP	10	96	5
STR	10	192	4
SI_	10	192	4	96	48	0
TAP	10	240	3
TAP	10	288	2
STR	11	0	2
SI_	11	0	2	96	48	7
TAP	11	48	3
TAP	11	96	4
STR	11	192	5
SI_	11	192	5	96	48	0
TAP	11	240	4
TAP	11	288	3
TAP	12	0	1
TAP	12	0	3
HLD	12	48	1	48
HLD	12	48	3	48
TAP	12	144	4
TAP	12	144	6
HLD	12	192	4	48
HLD	12	192	6	48
TAP	12	288	0
TAP	12	288	1
TAP	12	336	2
TAP	12	336	7
TAP	13	48	1
TAP	13	96	2
TAP	13	144	3
TAP	13	192	2
HLD	13	192	4	192
TAP	13	264	5
TAP	13	336	1
HLD	14	0	1	192
TAP	14	72	2
STR	14	144	7
SI_	14	144	7	96	48	4
STR	14	192	6
SI_	14	192	6	96	48	3
TAP	15	48	6
TAP	15	96	5
TAP	15	144	4
TAP	15	192	1
TAP	15	192	3
TAP	15	264	4
TAP	15	264	6
TAP	15	336	1
TAP	15	336	7
TAP	16	0	1
STR	16	0	7
SI_	16	0	7	96	48	4
STR	16	96	7
SI_	16	96	7	96	48	2
STR	16	192	7
SI_	16	192	7	96	48	3
TAP	16	288	7
TAP	17	48	6
TAP	17	96	5
TAP	17	144	4
HLD	17	192	3	192
TAP	17	192	5
TAP	17	264	2
TAP	17	336	6
HLD	18	0	6	192
TAP	18	72	5
STR	18	144	0
SI_	18	144	0	96	48	3
STR	18	192	1
SI_	18	192	1	96	48	4
TAP	19	48	1
TAP	19	96	2
TAP	19	144	3
TAP	19	192	4
TAP	19	192	6
TAP	19	264	1
TAP	19	264	3
TAP	19	336	4
TAP	19	336	5
HLD	20	0	4	48
HLD	20	0	5	48
HLD	20	96	2	48
HLD	20	96	3	48
HLD	20	192	5	48
HLD	20	192	7	48
HLD	20	288	0	48
HLD	20	288	2	48
STR	21	0	3
SCL	21	0	3	96	192	4
STR	21	0	4
SUL	21	0	4	96	192	3
TAP	22	0	4
TAP	22	48	5
TAP	22	96	3
TAP	22	96	6
TAP	22	144	5
TAP	22	192	3
TAP	22	240	2
TAP	22	288	1
TAP	22	288	4
TAP	23	0	4
TAP	23	48	5
TAP	23	96	3
TAP	23	96	6
TAP	23	144	5
TAP	23	192	3
TAP	23	240	2
TAP	23	288	1
TAP	23	288	4
TAP	24	0	5
TAP	24	0	7
HLD	24	48	5	48
HLD	24	48	7	48
TAP	24	144	0
TAP	24	144	2
HLD	24	192	0	48
HLD	24	192	2	48
TAP	24	288	4
TAP	24	288	5
TAP	24	336	3
TAP	24	336	6
TAP	25	48	4
TAP	25	48	6
TAP	25	96	3
TAP	25	144	2
HLD	25	192	1	192
TAP	25	264	0
TAP	25	336	4
HLD	26	0	4	192
TAP	26	72	5
STR	26	144	7
SI_	26	144	7	96	48	3
STR	26	192	0
SI_	26	192	0	96	48	5
TAP	27	48	3
TAP	27	96	4
TAP	27	144	5
TAP	27	192	0
TAP	27	192	6
TAP	27	264	1
TAP	27	264	2
TAP	27	336	4
TAP	27	336	5
STR	28	0	4
SI_	28	0	4	96	48	1
TAP	28	0	5
STR	28	96	4
SI_	28	96	4	96	48	7
STR	28	192	4
SI_	28	192	4	96	48	0
TAP	28	288	4
TAP	29	48	1
TAP	29	48	3
TAP	29	96	4
TAP	29	144	5
HLD	29	192	6	192
TAP	29	264	7
TAP	29	336	3
HLD	30	0	3	192
TAP	30	72	2
STR	30	144	0
SI_	30	144	0	96	48	4
STR	30	192	7
SI_	30	192	7	96	48	2
TAP	31	48	4
TAP	31	96	3
TAP	31	144	2
TAP	31	192	1
TAP	31	192	7
TAP	31	264	5
TAP	31	264	6
TAP	31	336	2
TAP	31	336	3
HLD	32	0	2	48
HLD	32	0	3	48
HLD	32	96	4	48
HLD	32	96	5	48
HLD	32	192	1	48
HLD	32	192	3	48
HLD	32	288	4	48
HLD	32	288	6	48
TAP	33	0	2
TAP	33	0	4
TAP	33	48	3
TAP	33	96	3
TAP	33	144	3
TAP	33	144	5
TAP	33	192	4
TAP	33	240	4
TAP	33	288	1
TAP	33	288	3
TAP	33	336	2
TAP	34	0	2
TAP	34	48	4
TAP	34	48	6
TAP	34	96	5
TAP	34	144	5
TAP	34	192	3
TAP	34	192	4
TAP	34	288	0
TAP	34	288	7
TAP	35	0	0
TAP	35	0	6
TAP	35	48	7
TAP	35	96	7
TAP	35	144	1
TAP	35	144	7
TAP	35	192	0
TAP	35	240	0
TAP	35	288	5
TAP	35	288	7
TAP	35	336	6
TAP	36	0	6
TAP	36	48	0
TAP	36	48	7
TAP	36	96	1
TAP	36	96	6
TAP	36	192	1
TAP	36	192	4
TAP	36	240	2
TAP	36	264	3
STR	36	288	2
SI_	36	288	2	96	48	7
TAP	36	312	3
TAP	36	336	2
TAP	36	360	3
BRK	37	0	2
STR	37	96	4
SCR	37	96	4	96	96	2
HLD	37	192	3	96
TAP	38	0	0
STR	38	96	3
SCL	38	96	3	96	96	5
HLD	38	192	4	96
TAP	39	0	4
TAP	39	0	6
TAP	39	48	5
TAP	39	72	4
TAP	39	96	5
TAP	39	144	1
TAP	39	144	3
TAP	39	192	2
TAP	39	216	3
TAP	39	240	2
HLD	39	288	4	48
BRK	39	336	5
BRK	41	0	0
BRK	41	0	6
STR	41	96	0
SUR	41	96	0	96	48	4
TAP	41	96	2
TAP	41	144	1
TAP	41	144	7
TAP	41	192	6
STR	41	288	0
SUL	41	288	0	96	48	4
TAP	41	288	6
TAP	41	336	1
TAP	41	336	7
TAP	42	0	2
STR	42	96	0
SI_	42	96	0	96	48	3
TAP	42	96	2
TAP	42	144	1
TAP	42	144	7
STR	42	192	0
SI_	42	192	0	96	48	5
TAP	42	192	6
TAP	42	288	0
TAP	43	0	1
TAP	43	0	7
TAP	43	96	5
STR	43	96	7
SUL	43	96	7	96	48	3
TAP	43	144	0
TAP	43	144	6
TAP	43	192	1
TAP	43	288	1
STR	43	288	7
SUR	43	288	7	96	48	3
TAP	43	336	0
TAP	43	336	6
TAP	44	0	5
TAP	44	96	5
TAP	44	96	7
TAP	44	144	0
TAP	44	144	6
TAP	44	192	1
TAP	44	192	7
TAP	44	240	0
TAP	44	240	6
STR	44	288	7
SI_	44	288	7	96	48	4
STR	44	336	1
SI_	44	336	1	96	48	4
BST	45	0	7
SI_	45	0	7	96	48	3
BST	45	48	1
SI_	45	48	1	96	48	5
BST	45	96	7
SI_	45	96	7	96	48	2
BRK	45	144	1
BRK	45	192	7
STR	45	288	0
SCR	45	288	0	96	144	7
BRK	46	0	0
HLD	46	0	6	144
TAP	46	192	0
TAP	46	192	6
TAP	46	288	5
TAP	46	288	6
TAP	47	0	3
TAP	47	0	7
TAP	47	48	3
TAP	47	48	7
TAP	47	96	2
TAP	47	96	6
TAP	47	144	1
TAP	47	144	5
STR	47	192	0
SCR	47	192	0	96	48	3
STR	47	192	4
SCR	47	192	4	96	48	7
STR	47	288	0
SXR	47	288	0	96	144	1
STR	47	288	4
SXR	47	288	4	96	144	5
TAP	48	192	1
TAP	48	192	7
TAP	48	288	1
TAP	48	288	2
TAP	49	0	2
TAP	49	0	3
STR	49	96	3
SLR	49	96	3	96	96	7
TAP	49	96	5
TAP	49	192	2
TAP	49	192	3
TAP	49	288	0
TAP	50	0	4
TAP	50	0	5
TAP	50	96	2
STR	50	96	4
SLL	50	96	4	96	96	0
TAP	50	192	4
HLD	50	192	5	48
TAP	50	288	5
TAP	51	0	2
TAP	51	0	3
STR	51	96	3
SLR	51	96	3	96	96	7
TAP	51	96	5
TAP	51	192	2
TAP	51	192	3
TAP	51	288	0
TAP	52	0	4
TAP	52	0	5
TAP	52	96	2
STR	52	96	4
SLL	52	96	4	96	96	0
TAP	52	192	4
HLD	52	192	5	48
TAP	52	288	5
TAP	53	0	0
TAP	53	0	7
TAP	53	96	5
TAP	53	120	4
TAP	53	144	3
TAP	53	144	6
TAP	53	240	2
TAP	53	264	3
TAP	53	288	1
TAP	53	288	4
TAP	54	0	0
TAP	54	0	4
TAP	54	48	1
TAP	54	48	5
STR	54	96	2
SCL	54	96	2	96	48	7
STR	54	96	6
SCL	54	96	6	96	48	3
TAP	54	192	2
TAP	54	192	6
TAP	55	0	0
HLD	55	0	1	144
TAP	55	144	2
TAP	55	192	3
TAP	55	240	3
TAP	55	240	4
TAP	55	336	1
TAP	55	336	4
TAP	56	48	3
TAP	56	48	6
STR	56	96	3
SI_	56	96	3	96	48	7
STR	56	96	6
SI_	56	96	6	96	48	3
HLD	57	0	6	144
TAP	57	0	7
TAP	57	144	5
TAP	57	192	4
TAP	57	240	3
TAP	57	240	4
TAP	57	336	3
TAP	57	336	6
TAP	58	48	1
TAP	58	48	4
STR	58	96	1
SI_	58	96	1	96	48	4
STR	58	96	4
SI_	58	96	4	96	48	0
HLD	59	0	2	144
TAP	59	0	3
TAP	59	144	1
TAP	59	192	0
TAP	59	240	0
TAP	59	240	7
TAP	59	336	2
TAP	59	336	7
TAP	60	48	0
TAP	60	48	5
STR	60	96	0
SI_	60	96	0	96	48	4
STR	60	96	5
SI_	60	96	5	96	48	0
TAP	61	0	4
HLD	61	0	5	144
TAP	61	144	6
TAP	61	192	7
TAP	61	240	0
TAP	61	240	7
TAP	61	336	0
TAP	61	336	5
TAP	62	48	2
TAP	62	48	7
STR	62	96	2
SI_	62	96	2	96	48	7
STR	62	96	7
SI_	62	96	7	96	48	3
TAP	63	0	2
HLD	63	0	3	672
HLD	64	0	4	672
HLD	65	0	6	672
HLD	66	0	1	288
TAP	67	0	0
HLD	67	0	7	288
TAP	67	96	1
TAP	67	192	2
TAP	67	288	3
HLD	68	0	3	288
TAP	68	0	4
TAP	68	96	5
TAP	68	192	6
TAP	68	288	7
TAP	69	0	0
TAP	69	48	1
TAP	69	96	2
TAP	69	144	3
TAP	69	192	4
TAP	69	240	5
TAP	69	288	6
TAP	69	336	7
TAP	70	0	1
TAP	70	24	0
TAP	70	48	1
TAP	70	72	0
TAP	70	96	1
TAP	70	144	6
TAP	70	168	7
TAP	70	192	6
TAP	70	216	7
TAP	70	240	6
STR	70	288	0
SI_	70	288	0	96	48	3
STR	70	336	6
SI_	70	336	6	96	48	3
BST	71	0	0
SI_	71	0	0	96	48	4
BST	71	48	6
SI_	71	48	6	96	48	2
BST	71	96	0
SI_	71	96	0	96	48	5
BRK	71	144	6
TAP	71	192	0
STR	71	288	7
SCL	71	288	7	96	144	0
HLD	72	0	1	144
BRK	72	0	7
TAP	72	192	1
TAP	72	192	7
TAP	72	288	1
TAP	72	288	2
TAP	73	0	1
TAP	73	0	5
TAP	73	48	1
TAP	73	48	5
TAP	73	96	2
TAP	73	96	6
TAP	73	144	3
TAP	73	144	7
STR	73	192	0
SCL	73	192	0	96	48	5
STR	73	192	4
SCL	73	192	4	96	48	1
STR	73	288	0
SXL	73	288	0	96	144	7
STR	73	288	4
SXL	73	288	4	96	144	3
TAP	74	192	0
TAP	74	192	6
TAP	74	288	5
TAP	74	288	6
TAP	75	0	4
TAP	75	0	5
TAP	75	96	2
STR	75	96	4
SXR	75	96	4	96	144	0
TAP	75	192	4
TAP	75	192	5
TAP	75	288	7
TAP	76	0	2
TAP	76	0	3
STR	76	96	3
SXL	76	96	3	96	144	7
TAP	76	96	5
STR	76	192	2
SI_	76	192	2	96	48	0
TAP	76	192	3
TAP	76	288	2
TAP	77	0	4
TAP	77	0	5
TAP	77	96	2
STR	77	96	4
SXR	77	96	4	96	144	0
TAP	77	192	4
TAP	77	192	5
TAP	77	288	7
TAP	78	0	2
TAP	78	0	3
STR	78	96	3
SXL	78	96	3	96	144	7
TAP	78	96	5
STR	78	192	2
SI_	78	192	2	96	48	0
TAP	78	192	3
TAP	78	288	2
TAP	79	0	3
TAP	79	0	4
TAP	79	96	2
TAP	79	120	3
TAP	79	144	1
TAP	79	144	4
TAP	79	240	5
TAP	79	264	4
TAP	79	288	3
TAP	79	288	6
TAP	80	0	3
TAP	80	0	4
TAP	80	48	1
TAP	80	48	6
STR	80	96	0
SSL	80	96	0	96	48	4
STR	80	96	7
SSR	80	96	7	96	48	3
TAP	80	192	0
TAP	80	192	7
STR	81	0	6
SI_	81	0	6	96	48	3
TAP	81	48	6
TAP	81	96	7
TAP	81	144	7
TAP	81	192	5
TAP	81	240	4
TAP	81	288	3
TAP	81	288	5
TAP	81	336	3
TAP	81	336	5
STR	82	0	1
SI_	82	0	1	96	48	4
TAP	82	48	1
TAP	82	96	0
TAP	82	144	0
TAP	82	192	2
TAP	82	240	3
TAP	82	288	2
TAP	82	288	4
TAP	82	336	2
TAP	82	336	4
STR	83	0	6
SI_	83	0	6	96	48	3
TAP	83	48	6
TAP	83	96	7
TAP	83	144	7
TAP	83	192	5
TAP	83	240	4
TAP	83	288	3
TAP	83	288	5
TAP	83	336	3
TAP	83	336	5
STR	84	0	1
SI_	84	0	1	96	48	4
TAP	84	48	1
TAP	84	96	0
TAP	84	144	0
TAP	84	192	4
TAP	84	192	6
TAP	84	240	2
TAP	84	264	3
TAP	84	288	0
TAP	84	336	5
TAP	84	360	4
BST	85	0	7
SI_	85	0	7	96	48	2
SI_	85	0	7	96	48	4
TAP	85	192	1
TAP	85	240	0
TAP	85	288	1
TAP	85	288	7
TAP	85	336	1
TAP	85	336	7
STR	86	0	3
SI_	86	0	3	96	48	7
TAP	86	48	3
TAP	86	96	4
TAP	86	144	4
TAP	86	192	6
TAP	86	240	7
TAP	86	288	0
TAP	86	288	6
TAP	86	336	0
TAP	86	336	6
STR	87	0	4
SI_	87	0	4	96	48	0
TAP	87	48	4
TAP	87	96	3
TAP	87	144	3
TAP	87	192	1
TAP	87	240	0
TAP	87	288	1
TAP	87	288	7
TAP	87	336	1
TAP	87	336	7
TAP	88	0	4
TAP	88	0	6
HLD	88	48	4	48
HLD	88	48	6	48
TAP	88	144	1
TAP	88	144	3
HLD	88	192	1	48
HLD	88	192	3	48
STR	88	288	0
SSR	88	288	0	96	48	4
STR	88	288	1
SSL	88	288	1	96	48	5
TAP	88	336	0
TAP	88	336	1

T_REC_TAP	475
T_REC_BRK	10
T_REC_XTP	0
T_REC_HLD	53
T_REC_XHO	0
T_REC_STR	81
T_REC_BST	7
T_REC_XST	0
T_REC_TTP	0
T_REC_THO	0
T_REC_SLD	89
T_REC_ALL	715
T_NUM_TAP	556
T_NUM_BRK	17
T_NUM_HLD	53
T_NUM_SLD	89
T_NUM_ALL	715
T_JUDGE_TAP	573
T_JUDGE_HLD	145
T_JUDGE_SLD	89
T_JUDGE_ALL	807
TTM_EACHPAIRS	180
TTM_SCR_TAP	278000
TTM_SCR_BRK	44200
TTM_SCR_HLD	53000
TTM_SCR_SLD	133500
TTM_SCR_ALL	508700
TTM_SCR_S	491800
TTM_SCR_SS	507000
TTM_RAT_ACV	10033

