VERSION	0.00.00	1.03.00
FES_MODE	0
BPM_DEF	170.000	170.000	170.000	170.000
MET_DEF	4	4
RESOLUTION	384
CLK_DEF	384
COMPATIBLE_CODE	MA2

BPM	0	0	170.000
MET	0	0	4	4

HLD	1	0	3	1344
TAP	1	0	4
TAP	2	0	4
TAP	3	0	4
TAP	3	192	4
TAP	4	0	4
TAP	4	96	4
TAP	4	192	4
TAP	4	288	1
TAP	4	288	6
TAP	5	0	5
TAP	5	96	4
TAP	5	96	6
TAP	5	192	2
TAP	5	288	1
TAP	5	288	3
TAP	6	0	5
TAP	6	96	4
TAP	6	96	6
TAP	6	192	6
TAP	6	192	7
TAP	6	288	0
TAP	6	288	5
TAP	7	0	2
TAP	7	96	1
TAP	7	96	3
TAP	7	192	5
TAP	7	288	4
TAP	7	288	6
TAP	8	0	2
TAP	8	96	1
TAP	8	96	3
TAP	8	192	0
TAP	8	192	1
TAP	8	288	2
TAP	8	288	7
TAP	9	0	6
TAP	9	96	5
TAP	9	96	7
TAP	9	192	1
TAP	9	288	0
TAP	9	288	2
TAP	10	0	6
TAP	10	96	5
TAP	10	96	7
TAP	10	192	4
TAP	10	192	5
TAP	10	288	3
TAP	10	288	6
TAP	11	0	1
TAP	11	96	0
TAP	11	96	2
TAP	11	192	6
TAP	11	288	5
TAP	11	288	7
TAP	12	0	0
TAP	12	0	7
TAP	12	48	0
TAP	12	48	7
TAP	12	144	3
TAP	12	144	4
TAP	12	192	3
TAP	12	192	4
TAP	12	288	1
TAP	12	288	6
TAP	13	0	4
HLD	13	0	5	384
TAP	13	96	4
TAP	13	192	3
TAP	13	288	3
TAP	14	0	4
TAP	14	96	3
TAP	14	96	6
TAP	14	192	2
TAP	14	192	3
TAP	14	288	1
TAP	14	288	4
HLD	15	0	2	384
TAP	15	0	3
TAP	15	96	3
TAP	15	192	4
TAP	15	288	4
TAP	16	0	3
TAP	16	96	3
TAP	16	96	4
TAP	16	192	4
TAP	16	192	5
TAP	16	288	3
TAP	16	288	6
TAP	17	0	4
HLD	17	0	5	384
TAP	17	96	4
TAP	17	192	3
TAP	17	288	3
TAP	18	0	4
TAP	18	96	3
TAP	18	96	6
TAP	18	192	2
TAP	18	192	5
TAP	18	288	1
TAP	18	288	4
HLD	19	0	2	384
TAP	19	0	3
TAP	19	96	3
TAP	19	192	4
TAP	19	288	4
TAP	20	0	3
TAP	20	96	0
TAP	20	96	1
TAP	20	192	6
TAP	20	192	7
STR	20	288	4
SCL	20	288	4	96	288	5
TAP	20	288	5
TAP	22	0	3
TAP	22	48	3
TAP	22	96	2
TAP	22	96	4
TAP	22	192	4
TAP	22	240	4
TAP	22	288	3
TAP	22	288	5
TAP	23	0	2
TAP	23	48	2
TAP	23	96	1
TAP	23	96	3
TAP	23	192	5
TAP	23	240	5
TAP	23	288	4
TAP	23	288	6
TAP	24	0	2
TAP	24	0	3
TAP	24	48	2
TAP	24	48	3
TAP	24	144	4
TAP	24	144	5
TAP	24	192	4
TAP	24	192	5
TAP	24	288	3
TAP	24	288	6
TAP	25	0	1
TAP	25	96	3
TAP	25	96	5
TAP	25	192	6
TAP	25	288	2
TAP	25	288	4
STR	26	0	1
SI_	26	0	1	96	96	4
STR	26	192	5
SI_	26	192	5	96	96	0
TAP	27	0	1
TAP	27	96	0
TAP	27	96	5
TAP	27	192	6
TAP	27	288	2
TAP	27	288	7
TAP	28	0	0
TAP	28	0	7
TAP	28	96	4
TAP	28	96	6
TAP	28	192	3
TAP	28	192	4
TAP	28	288	1
TAP	28	288	3
TAP	29	0	6
TAP	29	96	2
TAP	29	96	4
TAP	29	192	1
TAP	29	288	3
TAP	29	288	5
STR	30	0	6
SI_	30	0	6	96	96	3
STR	30	192	2
SI_	30	192	2	96	96	7
TAP	31	0	6
TAP	31	96	2
TAP	31	96	7
TAP	31	192	1
TAP	31	288	0
TAP	31	288	5
TAP	32	0	0
TAP	32	0	7
TAP	32	96	4
TAP	32	96	6
TAP	32	192	3
TAP	32	192	4
TAP	32	288	1
TAP	32	288	3
TAP	33	0	0
HLD	33	0	1	144
HLD	33	144	3	144
HLD	33	288	4	144
HLD	34	48	6	144
TAP	34	192	7
TAP	34	288	0
TAP	34	288	5
TAP	35	0	4
HLD	35	0	5	144
HLD	35	144	7	144
HLD	35	288	0	144
HLD	36	48	2	144
TAP	36	192	3
TAP	36	288	1
TAP	36	288	4
HLD	37	0	4	96
HLD	37	0	5	96
HLD	37	192	2	96
HLD	37	192	3	96
HLD	38	0	4	96
HLD	38	0	6	96
HLD	38	192	1	96
HLD	38	192	3	96
TAP	39	0	5
TAP	39	48	4
TAP	39	48	5
TAP	39	144	2
TAP	39	192	2
TAP	39	192	3
TAP	39	288	3
TAP	39	288	4
STR	39	336	3
SCL	39	336	3	96	144	0
STR	39	336	4
SCR	39	336	4	96	144	7
STR	40	288	1
SI_	40	288	1	96	48	4
STR	40	288	7
SI_	40	288	7	96	48	3
STR	41	96	0
SI_	41	96	0	96	48	4
STR	41	96	6
SI_	41	96	6	96	48	3
STR	41	288	1
SI_	41	288	1	96	48	4
STR	41	288	7
SI_	41	288	7	96	48	3
TAP	42	96	0
TAP	42	96	6
TAP	42	192	1
TAP	42	192	7
STR	42	288	0
SI_	42	288	0	96	48	4
STR	42	288	6
SI_	42	288	6	96	48	3
STR	43	96	1
SI_	43	96	1	96	48	4
STR	43	96	7
SI_	43	96	7	96	48	3
STR	43	288	0
SI_	43	288	0	96	48	4
STR	43	288	6
SI_	43	288	6	96	48	3
TAP	44	96	1
TAP	44	96	7
TAP	44	192	0
TAP	44	192	6
TAP	44	288	1
TAP	44	288	7
TAP	45	0	2
TAP	45	0	3
STR	45	96	0
SI_	45	96	0	96	96	5
STR	45	96	1
SI_	45	96	1	96	96	5
TAP	46	0	4
TAP	46	0	5
STR	46	96	6
SI_	46	96	6	96	96	2
STR	46	96	7
SI_	46	96	7	96	96	2
TAP	47	0	2
TAP	47	0	3
TAP	47	96	0
TAP	47	96	1
TAP	47	192	6
TAP	47	192	7
STR	47	288	4
SXL	47	288	4	96	288	1
TAP	47	288	5
TAP	49	0	4
TAP	49	0	6
TAP	49	96	4
TAP	49	96	6
TAP	49	192	2
TAP	49	192	4
TAP	49	288	4
TAP	50	0	4
TAP	50	0	6
TAP	50	96	4
TAP	50	96	6
TAP	50	192	2
TAP	50	192	4
TAP	50	288	2
TAP	51	0	1
TAP	51	0	3
TAP	51	96	1
TAP	51	96	3
TAP	51	192	3
TAP	51	192	5
TAP	51	288	3
TAP	52	0	1
TAP	52	0	3
TAP	52	96	1
TAP	52	96	3
TAP	52	192	3
TAP	52	192	5
STR	52	288	5
SCR	52	288	5	96	288	2
TAP	54	0	3
TAP	54	0	4
TAP	54	48	3
TAP	54	48	4
TAP	54	96	3
TAP	54	96	4
TAP	54	192	1
TAP	54	192	6
TAP	55	0	4
HLD	55	0	5	144
TAP	55	192	4
TAP	55	192	6
HLD	56	0	2	144
TAP	56	0	3
TAP	56	192	1
TAP	56	192	3
HLD	57	0	4	144
HLD	57	0	5	144
TAP	57	192	3
TAP	57	192	6
HLD	58	0	2	144
HLD	58	0	3	144
TAP	58	192	1
TAP	58	192	4
HLD	59	0	6	144
TAP	59	0	7
TAP	59	192	5
TAP	59	192	7
TAP	60	0	0
HLD	60	0	1	144
TAP	60	192	0
TAP	60	192	2
HLD	61	0	6	144
HLD	61	0	7	144
TAP	61	192	0
TAP	61	192	5
HLD	62	0	0	144
HLD	62	0	1	144
TAP	62	192	2
TAP	62	192	7
HLD	63	0	5	384
HLD	64	0	4	384
HLD	65	0	3	384
HLD	66	0	2	192
TAP	66	192	5
TAP	66	288	2
TAP	66	288	5
TAP	67	0	3
HLD	67	0	4	672
TAP	67	96	3
TAP	67	192	3
TAP	67	288	3
TAP	68	0	3
TAP	68	96	3
TAP	68	192	3
TAP	68	288	3
TAP	69	0	2
TAP	69	0	5
TAP	69	96	1
TAP	69	96	6
TAP	69	192	0
TAP	69	192	7
STR	69	288	0
SI_	69	288	0	96	96	4
STR	69	288	7
SI_	69	288	7	96	96	3
TAP	70	192	1
TAP	70	192	6
STR	70	288	0
SI_	70	288	0	96	48	4
STR	70	288	1
SI_	70	288	1	96	48	4
STR	71	96	6
SI_	71	96	6	96	48	3
STR	71	96	7
SI_	71	96	7	96	48	3
STR	71	288	0
SI_	71	288	0	96	48	4
STR	71	288	1
SI_	71	288	1	96	48	4
STR	72	96	6
SI_	72	96	6	96	48	3
STR	72	96	7
SI_	72	96	7	96	48	3
STR	72	288	0
SI_	72	288	0	96	48	4
STR	72	288	1
SI_	72	288	1	96	48	4
STR	73	96	6
SI_	73	96	6	96	48	3
STR	73	96	7
SI_	73	96	7	96	48	3
STR	73	288	0
SXL	73	288	0	96	288	5
TAP	73	288	1
TAP	75	0	1
TAP	75	0	3
TAP	75	96	1
TAP	75	96	3
TAP	75	192	3
HLD	75	192	5	96
TAP	75	288	3
TAP	76	0	1
TAP	76	0	3
TAP	76	96	1
TAP	76	96	3
HLD	76	192	3	96
TAP	76	192	5
TAP	76	288	5
TAP	77	0	4
TAP	77	0	6
TAP	77	96	4
TAP	77	96	6
HLD	77	192	2	96
TAP	77	192	4
TAP	77	288	4
TAP	78	0	4
TAP	78	0	6
TAP	78	96	4
TAP	78	96	6
TAP	78	192	2
HLD	78	192	4	96
STR	78	288	2
SCL	78	288	2	96	288	5
TAP	80	0	0
TAP	80	0	7
TAP	80	48	0
TAP	80	48	7
TAP	80	96	0
TAP	80	96	7
BRK	80	192	1
BRK	80	192	6
TAP	81	0	4
TAP	81	0	5
TAP	81	96	3
TAP	81	96	6
TAP	81	192	1
TAP	81	240	1
TAP	81	288	0
TAP	81	288	2
TAP	82	0	2
TAP	82	0	3
TAP	82	96	1
TAP	82	96	4
TAP	82	192	6
TAP	82	240	6
TAP	82	288	5
TAP	82	288	7
TAP	83	0	4
TAP	83	0	5
TAP	83	96	3
TAP	83	96	6
TAP	83	192	1
TAP	83	240	1
TAP	83	288	0
TAP	83	288	2
TAP	84	0	2
TAP	84	0	3
TAP	84	96	0
TAP	84	96	1
TAP	84	192	6
TAP	84	192	7
TAP	84	288	4
TAP	84	288	5
TAP	85	0	0
TAP	85	0	1
TAP	85	96	2
TAP	85	96	7
TAP	85	192	5
TAP	85	240	5
TAP	85	288	4
TAP	85	288	6
TAP	86	0	6
TAP	86	0	7
TAP	86	96	0
TAP	86	96	5
TAP	86	192	2
TAP	86	240	2
TAP	86	288	1
TAP	86	288	3
TAP	87	0	0
TAP	87	0	1
TAP	87	96	2
TAP	87	96	7
TAP	87	192	5
TAP	87	240	5
TAP	87	288	4
TAP	87	288	6
TAP	88	0	2
TAP	88	0	3
TAP	88	48	2
TAP	88	48	3
TAP	88	144	4
TAP	88	144	5
TAP	88	192	4
TAP	88	192	5
TAP	88	288	0
TAP	88	288	7
TAP	88	336	1
TAP	88	336	6

T_REC_TAP	382
T_REC_BRK	2
T_REC_XTP	0
T_REC_HLD	42
T_REC_XHO	0
T_REC_STR	41
T_REC_BST	0
T_REC_XST	0
T_REC_TTP	0
T_REC_THO	0
T_REC_SLD	41
T_REC_ALL	508
T_NUM_TAP	423
T_NUM_BRK	2
T_NUM_HLD	42
T_NUM_SLD	41
T_NUM_ALL	508
T_JUDGE_TAP	425
T_JUDGE_HLD	186
T_JUDGE_SLD	41
T_JUDGE_ALL	652
TTM_EACHPAIRS	186
TTM_SCR_TAP	211500
TTM_SCR_BRK	5200
TTM_SCR_HLD	42000
TTM_SCR_SLD	61500
TTM_SCR_ALL	320200
TTM_SCR_S	310400
TTM_SCR_SS	320000
TTM_RAT_ACV	10006

