VERSION	0.00.00	1.03.00
FES_MODE	0
BPM_DEF	170.000	170.000	170.000	170.000
MET_DEF	4	4
RESOLUTION	384
CLK_DEF	384
COMPATIBLE_CODE	MA2

BPM	0	0	170.000
MET	0	0	4	4

TAP	3	0	3
TAP	3	192	3
TAP	4	0	2
TAP	4	192	2
TAP	5	0	1
TAP	5	96	1
TAP	5	192	0
TAP	6	0	6
TAP	6	96	6
TAP	6	192	7
TAP	7	0	0
TAP	7	96	0
TAP	7	192	7
TAP	8	0	7
TAP	8	96	7
TAP	8	192	6
TAP	8	288	6
TAP	9	0	5
TAP	9	96	5
TAP	9	192	4
TAP	10	0	2
TAP	10	96	2
TAP	10	192	3
TAP	11	0	4
TAP	11	96	4
TAP	11	192	3
TAP	12	0	3
TAP	12	96	3
TAP	12	192	2
TAP	12	288	2
HLD	13	0	2	192
TAP	13	192	3
HLD	14	0	5	192
TAP	14	192	4
HLD	15	0	2	192
HLD	15	192	3	192
HLD	16	0	4	192
TAP	16	192	5
HLD	17	0	5	192
TAP	17	192	4
HLD	18	0	2	192
TAP	18	192	3
HLD	19	0	5	192
HLD	19	192	4	192
HLD	20	0	3	192
TAP	20	192	2
BRK	21	0	1
TAP	21	96	1
TAP	21	192	0
TAP	22	0	6
TAP	22	96	6
TAP	22	192	7
TAP	23	0	0
TAP	23	96	0
TAP	23	192	7
TAP	24	0	7
TAP	24	96	7
TAP	24	192	6
TAP	24	288	6
TAP	25	0	5
TAP	25	96	4
TAP	25	192	4
TAP	25	192	5
TAP	26	0	2
TAP	26	96	3
TAP	26	192	2
TAP	26	192	3
TAP	27	0	5
TAP	27	96	4
TAP	27	192	2
TAP	27	288	3
TAP	28	0	5
TAP	28	96	4
TAP	28	192	3
TAP	28	288	2
TAP	29	0	1
TAP	29	96	0
TAP	29	192	0
TAP	29	192	1
TAP	30	0	6
TAP	30	96	7
TAP	30	192	6
TAP	30	192	7
TAP	31	0	1
TAP	31	96	0
TAP	31	192	6
TAP	31	288	7
TAP	32	0	1
TAP	32	96	0
TAP	32	192	7
TAP	32	288	6
STR	33	0	5
SI_	33	0	5	96	168	0
STR	34	0	2
SI_	34	0	2	96	168	7
STR	35	0	6
SI_	35	0	6	96	192	2
TAP	36	0	1
TAP	36	96	1
TAP	36	192	2
TAP	36	288	2
STR	37	0	2
SI_	37	0	2	96	168	7
STR	38	0	5
SI_	38	0	5	96	168	0
STR	39	0	1
SUR	39	0	1	96	288	7
TAP	41	0	6
TAP	41	96	6
TAP	41	96	7
TAP	41	192	0
TAP	41	288	0
TAP	41	288	7
TAP	42	0	6
TAP	42	96	6
TAP	42	96	7
TAP	42	192	0
TAP	42	192	5
TAP	43	0	1
TAP	43	96	0
TAP	43	96	1
TAP	43	192	7
TAP	43	288	0
TAP	43	288	7
TAP	44	0	1
TAP	44	96	0
TAP	44	96	1
TAP	44	192	2
TAP	44	192	7
TAP	45	0	2
TAP	45	96	2
TAP	45	96	3
STR	45	192	2
SSL	45	192	2	96	288	6
TAP	45	192	3
TAP	47	0	5
TAP	47	96	4
TAP	47	96	5
TAP	47	192	4
STR	47	192	5
SCR	47	192	5	96	288	1
HLD	49	0	2	96
TAP	49	96	3
TAP	49	192	1
TAP	49	192	4
STR	50	0	0
SCR	50	0	0	96	192	3
TAP	50	0	7
HLD	51	0	5	96
TAP	51	96	4
TAP	51	192	3
TAP	51	192	6
TAP	52	0	0
STR	52	0	7
SCL	52	0	7	96	192	4
STR	53	0	3
SXR	53	0	3	96	480	0
STR	53	0	4
SXL	53	0	4	96	480	7
HLD	55	0	1	192
HLD	55	192	2	192
TAP	56	0	3
TAP	56	192	1
TAP	56	192	4
HLD	57	0	2	192
HLD	57	192	3	192
TAP	58	0	4
TAP	58	192	2
TAP	58	192	5
HLD	59	0	6	192
HLD	59	192	5	192
TAP	60	0	4
TAP	60	192	3
TAP	60	192	6
HLD	61	0	5	192
HLD	61	192	4	192
TAP	62	0	3
TAP	62	192	2
TAP	62	192	5
HLD	63	0	2	192
TAP	63	192	3
HLD	64	0	5	192
TAP	64	192	4
TAP	65	0	3
STR	65	192	4
SUL	65	192	4	96	336	3
TAP	67	0	2
TAP	67	96	2
TAP	67	192	2
TAP	68	0	1
TAP	68	96	1
TAP	68	192	1
TAP	69	0	0
TAP	69	96	0
TAP	69	192	0
TAP	69	192	7
TAP	70	0	0
TAP	70	0	7
TAP	70	96	0
TAP	70	96	7
BRK	70	192	1
BRK	70	192	6
TAP	71	0	5
TAP	71	96	4
TAP	71	96	5
TAP	71	192	3
STR	71	192	6
SSL	71	192	6	96	288	2
TAP	73	0	2
TAP	73	96	2
TAP	73	96	3
STR	73	192	1
SCL	73	192	1	96	288	6
TAP	73	192	4
HLD	75	0	5	96
TAP	75	96	4
TAP	75	192	3
TAP	75	192	6
TAP	76	0	0
STR	76	0	7
SCL	76	0	7	96	192	4
HLD	77	0	2	96
TAP	77	96	3
TAP	77	192	1
TAP	77	192	4
STR	78	0	0
SCR	78	0	0	96	192	3
TAP	78	0	7
STR	79	0	3
SXR	79	0	3	96	480	0
STR	79	0	4
SXL	79	0	4	96	480	7
TAP	81	0	6
TAP	81	96	6
TAP	81	192	6
TAP	81	192	7
TAP	82	0	1
TAP	82	96	1
TAP	82	192	0
TAP	82	192	1
TAP	83	0	7
TAP	83	96	7
TAP	83	192	0
TAP	83	192	7
TAP	84	0	0
TAP	84	96	0
TAP	84	192	1
TAP	84	288	1
TAP	85	0	2
TAP	85	96	2
TAP	85	192	2
TAP	85	192	3
TAP	86	0	5
TAP	86	96	5
TAP	86	192	4
TAP	86	192	5
TAP	87	0	3
TAP	87	96	3
TAP	87	192	3
TAP	87	192	4
TAP	88	0	4
TAP	88	96	5
TAP	88	192	6
TAP	88	288	0
TAP	88	288	7
TAP	88	336	0
TAP	88	336	7

T_REC_TAP	202
T_REC_BRK	3
T_REC_XTP	0
T_REC_HLD	24
T_REC_XHO	0
T_REC_STR	19
T_REC_BST	0
T_REC_XST	0
T_REC_TTP	0
T_REC_THO	0
T_REC_SLD	19
T_REC_ALL	267
T_NUM_TAP	221
T_NUM_BRK	3
T_NUM_HLD	24
T_NUM_SLD	19
T_NUM_ALL	267
T_JUDGE_TAP	224
T_JUDGE_HLD	88
T_JUDGE_SLD	19
T_JUDGE_ALL	331
TTM_EACHPAIRS	46
TTM_SCR_TAP	110500
TTM_SCR_BRK	7800
TTM_SCR_HLD	24000
TTM_SCR_SLD	28500
TTM_SCR_ALL	170800
TTM_SCR_S	165400
TTM_SCR_SS	170500
TTM_RAT_ACV	10017

