VERSION	0.00.00	1.03.00
FES_MODE	0
BPM_DEF	170.000	170.000	170.000	170.000
MET_DEF	4	4
RESOLUTION	384
CLK_DEF	384
COMPATIBLE_CODE	MA2

BPM	0	0	170.000
MET	0	0	4	4

TAP	5	0	0
TAP	5	96	0
TAP	5	192	0
TAP	6	0	1
TAP	6	96	1
TAP	6	192	1
TAP	7	0	2
TAP	7	96	2
TAP	7	192	2
TAP	8	0	3
TAP	8	96	4
TAP	8	192	3
TAP	9	0	4
TAP	9	96	4
TAP	9	192	4
TAP	10	0	5
TAP	10	96	5
TAP	10	192	5
TAP	11	0	6
TAP	11	96	6
TAP	11	192	6
TAP	12	0	7
TAP	12	96	0
TAP	12	192	7
HLD	13	0	6	192
TAP	14	0	5
TAP	14	192	5
HLD	15	0	4	192
TAP	16	0	3
TAP	16	192	3
TAP	16	192	4
HLD	17	0	2	192
TAP	18	0	1
TAP	18	192	1
HLD	19	0	0	192
TAP	20	0	7
TAP	20	192	0
TAP	20	192	7
TAP	21	0	6
TAP	21	96	6
TAP	21	192	6
TAP	22	0	7
TAP	22	96	7
TAP	22	192	7
TAP	23	0	0
TAP	23	96	0
TAP	23	192	0
TAP	24	0	1
TAP	24	96	0
TAP	24	192	1
TAP	25	0	0
TAP	25	192	0
TAP	26	0	1
TAP	26	96	1
TAP	26	192	0
TAP	26	192	1
TAP	27	0	2
TAP	27	192	2
TAP	28	0	3
TAP	28	96	3
TAP	28	192	3
TAP	28	192	4
TAP	29	0	4
TAP	29	192	4
TAP	30	0	5
TAP	30	96	5
TAP	30	192	4
TAP	30	192	5
TAP	31	0	6
TAP	31	192	6
TAP	32	0	7
TAP	32	96	7
TAP	32	192	0
TAP	32	192	7
STR	33	0	0
SI_	33	0	0	96	288	4
STR	35	0	7
SI_	35	0	7	96	288	3
STR	37	0	0
SI_	37	0	0	96	288	5
STR	39	0	7
SI_	39	0	7	96	288	2
BRK	41	0	0
TAP	41	96	0
TAP	41	192	0
TAP	42	0	0
TAP	42	0	7
TAP	42	96	0
TAP	42	96	7
TAP	42	192	0
TAP	42	192	7
TAP	43	0	6
TAP	43	96	6
TAP	43	192	6
TAP	44	0	4
TAP	44	0	5
TAP	44	96	4
TAP	44	96	5
TAP	44	192	4
TAP	44	192	5
TAP	45	0	4
TAP	45	96	4
TAP	45	192	4
TAP	46	0	3
TAP	46	0	4
TAP	46	96	3
TAP	46	96	4
TAP	46	192	3
TAP	46	192	4
TAP	47	0	3
TAP	47	96	3
TAP	47	192	3
TAP	48	0	3
TAP	48	0	4
TAP	48	96	3
TAP	48	96	4
TAP	48	192	3
TAP	48	192	4
TAP	49	0	2
TAP	49	96	2
TAP	49	192	2
TAP	50	0	2
TAP	50	0	3
TAP	50	96	2
TAP	50	96	3
TAP	50	192	2
TAP	50	192	3
TAP	51	0	1
TAP	51	96	1
TAP	51	192	1
TAP	52	0	0
TAP	52	0	1
TAP	52	96	0
TAP	52	96	1
TAP	52	192	0
TAP	52	192	1
TAP	53	0	7
TAP	53	96	7
TAP	53	192	7
TAP	54	0	6
TAP	54	0	7
TAP	54	96	6
TAP	54	96	7
TAP	54	192	6
TAP	54	192	7
STR	55	0	6
SI_	55	0	6	96	288	2
STR	57	0	1
SI_	57	0	1	96	288	5
STR	59	0	6
SI_	59	0	6	96	288	3
STR	61	0	1
SI_	61	0	1	96	288	4
TAP	63	0	6
TAP	63	96	6
TAP	63	192	6
TAP	64	0	5
TAP	64	96	5
TAP	64	192	5
HLD	65	0	3	384
HLD	65	0	4	384
TAP	67	0	2
TAP	67	96	2
TAP	67	192	2
TAP	68	0	1
TAP	68	96	1
TAP	68	192	1
TAP	69	0	0
TAP	69	0	7
TAP	69	96	0
TAP	69	96	7
TAP	69	192	0
TAP	69	192	7
TAP	70	0	1
TAP	70	0	6
BRK	71	0	0
TAP	71	96	0
TAP	71	192	1
TAP	71	288	1
TAP	72	0	2
TAP	72	0	3
TAP	72	96	2
TAP	72	96	3
TAP	72	192	2
TAP	72	192	3
TAP	73	0	4
TAP	73	96	4
TAP	73	192	5
TAP	73	288	5
TAP	74	0	6
TAP	74	0	7
TAP	74	96	6
TAP	74	96	7
TAP	74	192	6
TAP	74	192	7
TAP	75	0	7
TAP	75	96	7
TAP	75	192	6
TAP	75	288	6
TAP	76	0	4
TAP	76	0	5
TAP	76	96	4
TAP	76	96	5
TAP	76	192	4
TAP	76	192	5
TAP	77	0	3
TAP	77	96	3
TAP	77	192	2
TAP	77	288	2
TAP	78	0	0
TAP	78	0	1
TAP	78	96	0
TAP	78	96	1
TAP	78	192	0
TAP	78	192	1
TAP	79	0	6
TAP	79	0	7
TAP	79	96	6
TAP	79	96	7
TAP	79	192	6
TAP	79	192	7
TAP	80	0	0
TAP	80	0	7
TAP	80	96	0
TAP	80	96	7
TAP	80	192	0
TAP	80	192	7
TAP	81	0	1
TAP	81	96	1
TAP	81	192	1
TAP	82	0	2
TAP	82	96	2
TAP	82	192	2
TAP	83	0	3
TAP	83	96	3
TAP	83	192	3
TAP	84	0	4
TAP	84	96	3
TAP	84	192	3
TAP	84	192	4
TAP	85	0	4
TAP	85	96	4
TAP	85	192	4
TAP	86	0	5
TAP	86	96	5
TAP	86	192	5
TAP	87	0	6
TAP	87	96	6
TAP	87	192	6
TAP	88	0	7
TAP	88	96	0
TAP	88	192	0
TAP	88	192	7
TAP	88	288	0
TAP	88	288	7

T_REC_TAP	231
T_REC_BRK	2
T_REC_XTP	0
T_REC_HLD	6
T_REC_XHO	0
T_REC_STR	8
T_REC_BST	0
T_REC_XST	0
T_REC_TTP	0
T_REC_THO	0
T_REC_SLD	8
T_REC_ALL	255
T_NUM_TAP	239
T_NUM_BRK	2
T_NUM_HLD	6
T_NUM_SLD	8
T_NUM_ALL	255
T_JUDGE_TAP	241
T_JUDGE_HLD	32
T_JUDGE_SLD	8
T_JUDGE_ALL	281
TTM_EACHPAIRS	53
TTM_SCR_TAP	119500
TTM_SCR_BRK	5200
TTM_SCR_HLD	6000
TTM_SCR_SLD	12000
TTM_SCR_ALL	142700
TTM_SCR_S	138250
TTM_SCR_SS	142500
TTM_RAT_ACV	10014

