VERSION	0.00.00	1.03.00
FES_MODE	0
BPM_DEF	208.000	208.000	208.000	208.000
MET_DEF	4	4
RESOLUTION	384
CLK_DEF	384
COMPATIBLE_CODE	MA2

BPM	0	0	208.000
MET	0	0	4	4

TAP	1	0	4
TAP	1	0	6
TAP	1	96	3
TAP	1	192	1
TAP	1	192	3
TAP	1	288	4
TAP	1	336	3
TAP	2	48	3
STR	2	96	4
SI_	2	96	4	96	48	0
TAP	2	192	2
TAP	2	288	2
TAP	2	336	3
TAP	3	48	3
STR	3	96	1
SI_	3	96	1	96	48	4
TAP	3	192	6
TAP	3	288	6
TAP	3	336	7
TAP	4	48	7
HLD	4	96	5	96
HLD	4	192	7	96
TAP	4	288	0
TAP	5	0	1
TAP	5	0	3
TAP	5	96	4
TAP	5	192	4
TAP	5	192	6
TAP	5	288	3
TAP	5	336	4
TAP	6	48	4
STR	6	96	3
SI_	6	96	3	96	48	7
TAP	6	192	5
TAP	6	288	5
TAP	6	336	4
TAP	7	48	4
STR	7	96	6
SI_	7	96	6	96	48	3
TAP	7	192	1
TAP	7	288	1
TAP	7	336	0
TAP	8	48	0
HLD	8	96	2	96
HLD	8	192	0	96
TAP	8	288	7
STR	9	0	4
SI_	9	0	4	96	96	7
TAP	9	0	5
TAP	9	96	5
TAP	9	192	5
TAP	9	288	4
TAP	9	288	5
STR	10	0	3
SI_	10	0	3	96	96	0
TAP	10	0	5
TAP	10	96	5
TAP	10	192	5
TAP	10	288	3
TAP	10	288	5
STR	11	0	4
SI_	11	0	4	96	96	7
TAP	11	0	5
TAP	11	96	5
TAP	11	192	5
TAP	11	288	4
TAP	11	288	5
STR	12	0	3
SI_	12	0	3	96	96	0
TAP	12	0	5
TAP	12	96	5
TAP	12	192	5
TAP	12	288	3
TAP	12	288	5
TAP	13	0	2
TAP	13	96	2
TAP	13	96	3
TAP	13	192	5
TAP	13	288	4
TAP	13	288	5
TAP	14	0	2
TAP	14	96	1
TAP	14	96	3
TAP	14	192	5
TAP	14	288	4
TAP	14	288	6
TAP	15	0	3
TAP	15	0	4
TAP	15	96	1
TAP	15	96	6
TAP	15	192	2
TAP	15	192	5
TAP	15	288	0
TAP	15	288	7
TAP	15	336	0
TAP	15	336	7
STR	16	288	1
SI_	16	288	1	96	48	3
TAP	17	0	5
TAP	17	96	4
TAP	17	96	5
TAP	17	192	4
TAP	17	192	5
STR	17	288	3
SI_	17	288	3	96	48	1
TAP	17	288	5
TAP	18	0	5
TAP	18	96	0
TAP	18	96	5
TAP	18	192	0
TAP	18	192	5
STR	18	288	1
SI_	18	288	1	96	48	3
TAP	18	288	5
TAP	19	0	5
TAP	19	96	4
TAP	19	96	5
TAP	19	192	4
TAP	19	192	5
STR	19	288	3
SI_	19	288	3	96	48	1
TAP	19	288	5
TAP	20	0	5
TAP	20	96	0
TAP	20	96	5
TAP	20	192	3
TAP	20	192	4
STR	20	288	6
SI_	20	288	6	96	48	4
TAP	21	0	2
TAP	21	96	2
TAP	21	96	3
TAP	21	192	2
TAP	21	192	3
TAP	21	288	2
STR	21	288	4
SI_	21	288	4	96	48	6
TAP	22	0	2
TAP	22	96	2
TAP	22	96	7
TAP	22	192	2
TAP	22	192	7
TAP	22	288	2
STR	22	288	6
SI_	22	288	6	96	48	4
TAP	23	0	2
TAP	23	96	2
TAP	23	96	3
TAP	23	192	2
TAP	23	192	3
TAP	23	288	2
TAP	23	288	4
TAP	24	0	5
TAP	24	32	6
TAP	24	64	7
TAP	24	96	0
TAP	24	128	1
TAP	24	160	2
TAP	24	192	3
TAP	24	192	4
STR	24	288	5
SI_	24	288	5	96	48	0
TAP	25	0	3
TAP	25	96	1
TAP	25	96	3
TAP	25	192	1
TAP	25	192	3
STR	25	288	2
SI_	25	288	2	96	48	7
TAP	25	288	3
TAP	26	0	3
TAP	26	96	3
TAP	26	96	6
TAP	26	192	3
TAP	26	192	6
TAP	26	288	3
STR	26	288	5
SI_	26	288	5	96	48	0
TAP	27	0	3
TAP	27	96	1
TAP	27	96	3
TAP	27	192	1
TAP	27	192	3
STR	27	288	2
SI_	27	288	2	96	48	7
TAP	27	288	3
TAP	28	0	3
TAP	28	96	3
TAP	28	96	6
TAP	28	192	3
TAP	28	192	4
TAP	28	240	3
TAP	28	240	4
STR	28	288	2
SI_	28	288	2	96	48	7
TAP	29	0	4
TAP	29	96	4
TAP	29	96	6
TAP	29	192	4
TAP	29	192	6
TAP	29	288	4
STR	29	288	5
SI_	29	288	5	96	48	0
TAP	30	0	4
TAP	30	96	1
TAP	30	96	4
TAP	30	192	1
TAP	30	192	4
STR	30	288	2
SI_	30	288	2	96	48	7
TAP	30	288	4
TAP	31	0	4
TAP	31	96	4
TAP	31	96	6
TAP	31	192	4
TAP	31	192	6
TAP	31	288	4
STR	31	288	5
SCR	31	288	5	96	288	2
BRK	32	0	4
HLD	33	0	7	96
HLD	33	96	4	96
HLD	33	192	5	96
HLD	33	288	6	96
HLD	34	0	4	288
TAP	34	96	7
TAP	34	192	7
TAP	34	288	7
HLD	35	0	0	96
HLD	35	96	3	96
HLD	35	192	2	96
HLD	35	288	1	96
HLD	36	0	3	288
TAP	36	96	0
TAP	36	192	0
TAP	36	288	0
HLD	37	0	7	96
HLD	37	96	4	96
HLD	37	192	3	96
HLD	37	288	0	96
HLD	38	0	3	96
HLD	38	96	4	96
STR	38	192	7
SCL	38	192	7	96	672	1
HLD	39	0	0	96
HLD	39	192	0	96
HLD	40	0	7	96
HLD	40	192	7	96
TAP	41	0	3
TAP	41	0	4
TAP	41	96	3
TAP	41	96	4
TAP	41	192	3
TAP	41	240	4
TAP	41	336	4
STR	42	0	3
SCL	42	0	3	96	96	0
STR	42	0	4
SCR	42	0	4	96	96	7
STR	43	0	3
SCL	43	0	3	96	48	0
TAP	43	0	5
TAP	43	96	7
TAP	43	192	2
STR	43	192	4
SCR	43	192	4	96	48	7
TAP	43	288	0
STR	44	0	3
SCL	44	0	3	96	48	0
TAP	44	0	5
TAP	44	96	7
TAP	44	192	2
STR	44	192	4
SCR	44	192	4	96	48	7
TAP	44	288	0
STR	45	0	3
SCL	45	0	3	96	48	0
TAP	45	0	5
TAP	45	96	7
TAP	45	192	2
STR	45	192	4
SCR	45	192	4	96	48	7
TAP	45	288	0
TAP	46	0	3
TAP	46	0	5
TAP	46	96	7
TAP	46	192	2
TAP	46	192	4
STR	46	288	0
SCR	46	288	0	96	48	3
TAP	47	0	6
STR	47	96	4
SCR	47	96	4	96	48	7
TAP	47	192	2
STR	47	288	0
SCR	47	288	0	96	48	3
TAP	48	0	6
STR	48	96	4
SCR	48	96	4	96	48	7
TAP	48	192	2
STR	48	288	0
SCR	48	288	0	96	48	3
TAP	49	0	6
TAP	49	96	4
STR	49	192	2
SCL	49	192	2	96	192	5
TAP	49	288	5
TAP	50	192	0
TAP	50	192	7
TAP	50	288	3
TAP	50	288	5
TAP	51	0	2
STR	51	0	4
SCR	51	0	4	96	48	7
TAP	51	96	0
STR	51	192	3
SCL	51	192	3	96	48	0
TAP	51	192	5
TAP	51	288	7
TAP	52	0	2
STR	52	0	4
SCR	52	0	4	96	48	7
TAP	52	96	0
STR	52	192	3
SCL	52	192	3	96	48	0
TAP	52	192	5
TAP	52	288	7
TAP	53	0	2
STR	53	0	4
SCR	53	0	4	96	48	7
TAP	53	96	0
STR	53	192	3
SCL	53	192	3	96	48	0
TAP	53	192	5
TAP	53	288	7
TAP	54	0	2
TAP	54	0	4
TAP	54	96	0
TAP	54	192	3
TAP	54	192	5
STR	54	288	7
SCL	54	288	7	96	48	4
TAP	55	0	1
STR	55	96	3
SCL	55	96	3	96	48	0
TAP	55	192	5
STR	55	288	7
SCL	55	288	7	96	48	4
TAP	56	0	1
STR	56	96	3
SCL	56	96	3	96	48	0
TAP	56	192	5
STR	56	288	7
SCL	56	288	7	96	48	4
TAP	57	0	1
TAP	57	96	3
STR	57	192	5
SCR	57	192	5	96	192	2
TAP	57	288	2
TAP	58	192	0
TAP	58	192	7
STR	58	288	0
SI_	58	288	0	96	48	4
STR	58	288	7
SI_	58	288	7	96	48	3
TAP	60	48	4
TAP	60	96	4
TAP	60	144	3
TAP	60	192	3
TAP	60	240	4
TAP	60	288	4
TAP	60	336	3
TAP	61	0	3
TAP	61	0	4
TAP	61	48	5
TAP	61	96	6
TAP	61	144	7
TAP	61	192	1
TAP	61	240	3
TAP	61	288	0
TAP	61	336	2
TAP	62	0	4
TAP	62	48	6
TAP	62	96	7
TAP	62	144	5
TAP	62	192	0
TAP	62	240	2
TAP	62	288	1
TAP	62	336	3
TAP	63	0	4
TAP	63	48	7
TAP	63	96	6
TAP	63	144	5
TAP	63	192	2
TAP	63	240	3
TAP	63	288	1
TAP	63	336	0
TAP	64	0	7
TAP	64	48	6
TAP	64	96	4
TAP	64	144	5
TAP	64	192	3
TAP	64	240	2
TAP	64	288	1
TAP	65	0	3
TAP	65	0	4
TAP	65	48	2
TAP	65	96	1
TAP	65	144	0
TAP	65	192	4
TAP	65	240	6
TAP	65	288	5
TAP	65	336	7
TAP	66	0	2
TAP	66	32	3
TAP	66	64	2
TAP	66	96	1
TAP	66	128	2
TAP	66	160	3
TAP	66	192	4
TAP	66	224	5
TAP	66	256	6
TAP	66	288	5
TAP	66	320	4
TAP	66	352	5
STR	67	0	5
SI_	67	0	5	96	48	1
TAP	67	96	3
STR	67	192	2
SI_	67	192	2	96	48	6
TAP	67	288	5
STR	68	0	4
SI_	68	0	4	96	48	0
TAP	68	96	2
STR	68	192	3
SI_	68	192	3	96	48	7
TAP	68	288	5
HLD	69	0	0	96
HLD	69	96	3	96
HLD	69	192	2	96
HLD	69	288	1	96
HLD	70	0	3	288
TAP	70	96	0
TAP	70	192	2
TAP	70	288	0
HLD	71	0	7	96
HLD	71	96	4	96
HLD	71	192	5	96
HLD	71	288	6	96
HLD	72	0	4	288
TAP	72	96	7
TAP	72	192	5
TAP	72	288	7
HLD	73	0	0	96
HLD	73	96	3	96
HLD	73	192	4	96
HLD	73	288	7	96
HLD	74	0	4	96
HLD	74	96	3	96
STR	74	192	0
SCR	74	192	0	96	672	6
HLD	75	0	7	96
HLD	75	192	7	96
HLD	76	0	0	96
HLD	76	192	0	96
TAP	77	0	3
TAP	77	0	4
TAP	77	96	3
TAP	77	96	4
TAP	77	192	4
TAP	77	240	3
TAP	77	336	3
STR	78	0	3
SCL	78	0	3	96	96	0
STR	78	0	4
SCR	78	0	4	96	96	7
TAP	79	0	2
STR	79	0	4
SCR	79	0	4	96	48	7
TAP	79	96	0
TAP	79	144	0
STR	79	192	3
SCL	79	192	3	96	48	0
TAP	79	192	5
TAP	79	288	7
TAP	79	336	7
TAP	80	0	2
STR	80	0	4
SCR	80	0	4	96	48	7
TAP	80	96	0
TAP	80	144	0
STR	80	192	3
SCL	80	192	3	96	48	0
TAP	80	192	5
TAP	80	288	7
TAP	80	336	7
TAP	81	0	2
STR	81	0	4
SCR	81	0	4	96	48	7
TAP	81	96	0
TAP	81	144	0
STR	81	192	3
SCL	81	192	3	96	48	0
TAP	81	192	5
TAP	81	288	7
TAP	81	336	7
TAP	82	0	2
TAP	82	0	4
TAP	82	96	0
TAP	82	192	3
TAP	82	192	5
STR	82	288	7
SCL	82	288	7	96	48	4
TAP	83	0	1
STR	83	96	3
SCL	83	96	3	96	48	0
TAP	83	192	5
STR	83	288	7
SCL	83	288	7	96	48	4
TAP	84	0	1
STR	84	96	3
SCL	84	96	3	96	48	0
TAP	84	192	5
STR	84	288	7
SCL	84	288	7	96	48	4
TAP	85	0	1
TAP	85	96	3
STR	85	192	5
SCR	85	192	5	96	192	2
TAP	85	288	2
TAP	86	192	0
TAP	86	192	7
TAP	86	288	2
TAP	86	288	4
STR	87	0	3
SCL	87	0	3	96	48	0
TAP	87	0	5
TAP	87	96	7
TAP	87	144	7
TAP	87	192	2
STR	87	192	4
SCR	87	192	4	96	48	7
TAP	87	288	0
TAP	87	336	0
STR	88	0	3
SCL	88	0	3	96	48	0
TAP	88	0	5
TAP	88	96	7
TAP	88	144	7
TAP	88	192	2
STR	88	192	4
SCR	88	192	4	96	48	7
TAP	88	288	0
TAP	88	336	0
STR	89	0	3
SCL	89	0	3	96	48	0
TAP	89	0	5
TAP	89	96	7
TAP	89	144	7
TAP	89	192	2
STR	89	192	4
SCR	89	192	4	96	48	7
TAP	89	288	0
TAP	89	336	0
TAP	90	0	3
TAP	90	0	5
TAP	90	96	7
TAP	90	192	2
TAP	90	192	4
STR	90	288	0
SCR	90	288	0	96	48	3
TAP	91	0	6
STR	91	96	4
SCR	91	96	4	96	48	7
TAP	91	192	2
STR	91	288	0
SCR	91	288	0	96	48	3
TAP	92	0	6
STR	92	96	4
SCR	92	96	4	96	48	7
TAP	92	192	2
STR	92	288	0
SCR	92	288	0	96	48	3
TAP	93	0	6
TAP	93	96	4
STR	93	192	2
SCL	93	192	2	96	192	5
TAP	93	288	5
TAP	94	192	0
TAP	94	192	7
TAP	94	288	1
STR	94	288	6
SCL	94	288	6	96	576	1
HLD	95	0	0	96
HLD	95	192	0	96
HLD	96	0	7	96
HLD	96	192	7	96
STR	96	288	1
SCR	96	288	1	96	576	6
HLD	97	0	0	96
HLD	97	192	0	96
HLD	98	0	7	96
HLD	98	192	7	96
STR	98	288	6
SCL	98	288	6	96	576	1
HLD	99	0	0	96
HLD	99	192	7	96
HLD	100	0	0	96
HLD	100	192	7	96
STR	100	288	1
SCR	100	288	1	96	576	6
HLD	101	0	0	96
HLD	101	192	7	96
HLD	102	0	0	96
HLD	102	192	7	96
STR	102	288	5
SCR	102	288	5	96	576	2
HLD	103	0	4	96
HLD	103	192	4	96
HLD	104	0	3	96
HLD	104	192	3	96
STR	104	288	2
SCL	104	288	2	96	576	5
HLD	105	0	4	96
HLD	105	192	4	96
HLD	106	0	3	96
HLD	106	192	3	96
STR	106	288	5
SCR	106	288	5	96	576	2
HLD	107	0	4	96
HLD	107	192	3	96
HLD	108	0	4	96
HLD	108	192	3	96
STR	108	288	2
SCL	108	288	2	96	576	5
HLD	109	0	3	96
HLD	109	192	4	96
HLD	110	0	3	96
HLD	110	192	4	96
BST	110	288	5
SI_	110	288	5	96	48	3

T_REC_TAP	380
T_REC_BRK	1
T_REC_XTP	0
T_REC_HLD	76
T_REC_XHO	0
T_REC_STR	91
T_REC_BST	1
T_REC_XST	0
T_REC_TTP	0
T_REC_THO	0
T_REC_SLD	92
T_REC_ALL	641
T_NUM_TAP	471
T_NUM_BRK	2
T_NUM_HLD	76
T_NUM_SLD	92
T_NUM_ALL	641
T_JUDGE_TAP	473
T_JUDGE_HLD	168
T_JUDGE_SLD	92
T_JUDGE_ALL	733
TTM_EACHPAIRS	111
TTM_SCR_TAP	235500
TTM_SCR_BRK	5200
TTM_SCR_HLD	76000
TTM_SCR_SLD	138000
TTM_SCR_ALL	454700
TTM_SCR_S	440900
TTM_SCR_SS	454500
TTM_RAT_ACV	10004

