VERSION	0.00.00	1.03.00
FES_MODE	0
BPM_DEF	208.000	208.000	208.000	208.000
MET_DEF	4	4
RESOLUTION	384
CLK_DEF	384
COMPATIBLE_CODE	MA2

BPM	0	0	208.000
MET	0	0	4	4

TAP	1	0	2
TAP	1	0	3
TAP	1	192	3
HLD	1	192	4	144
HLD	1	336	5	144
TAP	2	96	6
TAP	2	192	0
TAP	2	192	7
HLD	2	336	2	144
TAP	2	336	3
TAP	3	96	1
TAP	3	192	0
TAP	3	192	7
TAP	3	336	4
HLD	3	336	5	144
TAP	4	96	6
TAP	4	192	7
TAP	4	288	7
TAP	5	0	4
TAP	5	0	5
HLD	5	192	3	144
TAP	5	192	4
HLD	5	336	2	144
TAP	6	96	1
TAP	6	192	0
TAP	6	192	7
TAP	6	336	4
HLD	6	336	5	144
TAP	7	96	6
TAP	7	192	0
TAP	7	192	7
HLD	7	336	2	144
TAP	7	336	3
TAP	8	96	1
TAP	8	192	0
TAP	8	288	0
HLD	9	0	2	192
TAP	9	0	3
HLD	9	192	3	144
HLD	9	336	4	144
TAP	10	96	5
TAP	10	192	3
TAP	10	192	6
HLD	10	336	4	144
TAP	10	336	5
TAP	11	96	5
TAP	11	192	3
TAP	11	192	6
HLD	11	336	6	144
TAP	11	336	7
TAP	12	96	7
TAP	12	192	0
TAP	12	192	5
TAP	12	288	0
TAP	12	288	5
TAP	13	0	4
HLD	13	0	5	192
HLD	13	192	4	144
HLD	13	336	3	144
TAP	14	96	2
TAP	14	192	1
TAP	14	192	4
TAP	14	336	2
HLD	14	336	3	144
TAP	15	96	2
TAP	15	192	1
TAP	15	192	4
STR	15	336	0
SI_	15	336	0	96	192	3
STR	15	336	7
SI_	15	336	7	96	192	4
TAP	17	0	5
TAP	17	96	5
TAP	17	192	4
TAP	17	192	5
TAP	17	288	5
TAP	18	0	2
TAP	18	96	2
TAP	18	192	2
TAP	18	192	3
TAP	18	288	2
TAP	19	0	5
TAP	19	96	5
TAP	19	192	4
TAP	19	192	5
STR	19	288	5
SI_	19	288	5	96	144	2
TAP	21	0	2
TAP	21	96	2
TAP	21	192	2
TAP	21	192	3
TAP	21	288	2
TAP	22	0	5
TAP	22	96	5
TAP	22	192	4
TAP	22	192	5
TAP	22	288	5
TAP	23	0	2
TAP	23	96	2
TAP	23	192	2
TAP	23	192	3
STR	23	288	2
SCR	23	288	2	96	144	5
TAP	25	0	6
TAP	25	96	6
TAP	25	192	4
TAP	25	192	5
TAP	25	288	6
TAP	26	0	1
TAP	26	96	1
TAP	26	192	2
TAP	26	192	3
TAP	26	288	1
TAP	27	0	6
TAP	27	96	6
TAP	27	192	4
TAP	27	192	5
STR	27	288	6
SUR	27	288	6	96	192	3
TAP	29	0	1
TAP	29	96	1
TAP	29	192	2
TAP	29	192	3
TAP	29	288	1
TAP	30	0	6
TAP	30	96	6
TAP	30	192	4
TAP	30	192	5
TAP	30	288	6
STR	31	0	6
SCL	31	0	6	96	288	1
BST	32	0	0
SI_	32	0	0	96	288	4
HLD	33	0	5	384
TAP	33	192	4
TAP	33	288	4
HLD	34	0	2	384
TAP	34	192	3
TAP	34	288	3
HLD	35	0	6	384
TAP	35	192	5
TAP	35	288	5
HLD	36	0	1	384
TAP	36	192	2
TAP	36	288	2
HLD	37	0	7	384
TAP	37	192	6
TAP	37	288	6
HLD	38	0	0	192
TAP	38	192	1
STR	39	0	0
SXL	39	0	0	96	480	3
STR	39	0	7
SXR	39	0	7	96	480	4
TAP	41	0	2
TAP	41	0	5
TAP	41	96	2
TAP	41	96	5
TAP	41	192	3
TAP	41	240	3
TAP	41	336	4
TAP	42	0	4
HLD	42	96	2	192
HLD	42	96	5	192
TAP	43	0	2
TAP	43	0	3
TAP	43	96	0
TAP	43	192	2
TAP	43	192	3
TAP	43	288	7
TAP	44	0	3
TAP	44	0	4
TAP	44	96	0
TAP	44	192	3
TAP	44	192	4
TAP	44	288	7
TAP	45	0	4
TAP	45	0	5
TAP	45	96	0
TAP	45	192	4
TAP	45	192	5
TAP	45	288	7
TAP	46	0	3
TAP	46	0	4
TAP	46	96	5
TAP	46	192	6
TAP	46	288	7
HLD	47	0	0	96
HLD	47	0	1	96
HLD	47	192	6	96
HLD	47	192	7	96
TAP	48	0	1
TAP	48	0	3
TAP	48	96	2
TAP	48	192	4
TAP	48	192	6
TAP	48	288	5
TAP	49	0	3
TAP	49	0	4
TAP	49	96	2
TAP	49	192	1
STR	49	288	0
SI_	49	288	0	96	192	4
TAP	49	288	7
TAP	50	192	5
TAP	50	288	5
TAP	51	0	4
TAP	51	0	5
TAP	51	96	7
TAP	51	192	4
TAP	51	192	5
TAP	51	288	0
TAP	52	0	3
TAP	52	0	4
TAP	52	96	7
TAP	52	192	3
TAP	52	192	4
TAP	52	288	0
TAP	53	0	2
TAP	53	0	3
TAP	53	96	7
TAP	53	192	2
TAP	53	192	3
TAP	53	288	0
TAP	54	0	3
TAP	54	0	4
TAP	54	96	2
TAP	54	192	1
TAP	54	288	0
HLD	55	0	6	96
HLD	55	0	7	96
HLD	55	192	0	96
HLD	55	192	1	96
TAP	56	0	4
TAP	56	0	6
TAP	56	96	5
TAP	56	192	1
TAP	56	192	3
TAP	56	288	2
STR	57	0	3
SXR	57	0	3	96	480	0
STR	57	0	4
SXL	57	0	4	96	480	7
BRK	59	0	1
BRK	59	0	6
HLD	61	0	2	192
TAP	61	96	3
HLD	61	192	5	192
TAP	61	288	4
HLD	62	0	1	192
TAP	62	96	2
HLD	62	192	4	192
TAP	62	288	3
HLD	63	0	0	96
HLD	63	96	7	96
HLD	63	192	6	96
HLD	63	288	5	96
HLD	64	0	3	96
TAP	64	96	4
TAP	64	192	2
TAP	64	192	5
TAP	64	288	2
TAP	64	288	5
HLD	65	0	5	192
TAP	65	96	4
HLD	65	192	2	192
TAP	65	288	3
HLD	66	0	6	96
HLD	66	96	0	96
HLD	66	192	2	96
HLD	66	288	4	96
HLD	67	0	5	192
TAP	67	96	7
HLD	67	192	2	192
TAP	67	288	0
HLD	68	0	6	192
TAP	68	96	7
HLD	68	192	1	96
TAP	68	288	0
BST	69	0	0
SCR	69	0	0	96	288	3
BRK	69	0	7
STR	70	0	7
SCL	70	0	7	96	288	4
STR	71	0	1
SCR	71	0	1	96	288	4
STR	72	0	6
SCL	72	0	6	96	288	3
STR	73	0	0
SSL	73	0	0	96	288	4
STR	74	0	7
SSR	74	0	7	96	288	3
STR	75	0	0
SF_	75	0	0	96	480	4
TAP	77	0	2
TAP	77	0	5
TAP	77	96	2
TAP	77	96	5
TAP	77	192	4
TAP	77	240	4
TAP	77	336	3
TAP	78	0	3
HLD	78	96	2	192
HLD	78	96	5	192
HLD	79	0	4	96
TAP	79	0	5
TAP	79	96	7
TAP	79	192	4
HLD	79	192	5	96
TAP	79	288	0
HLD	80	0	3	96
TAP	80	0	4
TAP	80	96	7
TAP	80	192	3
HLD	80	192	4	96
TAP	80	288	0
HLD	81	0	2	96
TAP	81	0	3
TAP	81	96	7
TAP	81	192	2
HLD	81	192	3	96
TAP	81	288	0
TAP	82	0	3
TAP	82	0	4
TAP	82	96	2
TAP	82	192	1
TAP	82	288	0
HLD	83	0	5	96
HLD	83	0	7	96
HLD	83	192	0	96
HLD	83	192	2	96
TAP	84	0	4
TAP	84	0	7
TAP	84	96	6
TAP	84	192	0
TAP	84	192	3
TAP	84	288	1
TAP	85	0	3
TAP	85	0	4
TAP	85	96	5
TAP	85	192	6
TAP	85	288	0
STR	85	288	7
SI_	85	288	7	96	192	3
TAP	86	192	2
TAP	86	288	2
TAP	87	0	2
HLD	87	0	3	96
TAP	87	96	0
HLD	87	192	2	96
TAP	87	192	3
TAP	87	288	7
TAP	88	0	3
HLD	88	0	4	96
TAP	88	96	0
HLD	88	192	3	96
TAP	88	192	4
TAP	88	288	7
TAP	89	0	4
HLD	89	0	5	96
TAP	89	96	0
HLD	89	192	4	96
TAP	89	192	5
TAP	89	288	7
TAP	90	0	3
TAP	90	0	4
TAP	90	96	5
TAP	90	192	6
TAP	90	288	7
HLD	91	0	0	96
HLD	91	0	2	96
HLD	91	192	5	96
HLD	91	192	7	96
TAP	92	0	0
TAP	92	0	3
TAP	92	96	1
TAP	92	192	4
TAP	92	192	7
TAP	92	288	6
STR	93	0	3
SXR	93	0	3	96	480	0
STR	93	0	4
SXL	93	0	4	96	480	7
BST	95	0	1
SCR	95	0	1	96	672	7
BST	95	0	6
SCL	95	0	6	96	672	0
TAP	98	96	2
TAP	98	192	3
TAP	98	288	4
HLD	99	0	5	192
HLD	99	192	4	192
HLD	100	0	3	192
HLD	100	192	2	192
HLD	101	0	1	192
HLD	101	192	2	192
HLD	102	0	3	192
HLD	102	192	4	192
STR	103	0	5
SCL	103	0	5	96	672	6
TAP	106	96	5
TAP	106	192	4
TAP	106	288	3
HLD	107	0	2	192
HLD	107	192	3	192
HLD	108	0	4	192
HLD	108	192	5	192
HLD	109	0	6	192
HLD	109	192	5	192
HLD	110	0	4	192
HLD	110	192	3	192
BRK	111	0	2

T_REC_TAP	268
T_REC_BRK	4
T_REC_XTP	0
T_REC_HLD	90
T_REC_XHO	0
T_REC_STR	21
T_REC_BST	4
T_REC_XST	0
T_REC_TTP	0
T_REC_THO	0
T_REC_SLD	25
T_REC_ALL	412
T_NUM_TAP	289
T_NUM_BRK	8
T_NUM_HLD	90
T_NUM_SLD	25
T_NUM_ALL	412
T_JUDGE_TAP	297
T_JUDGE_HLD	289
T_JUDGE_SLD	25
T_JUDGE_ALL	611
TTM_EACHPAIRS	97
TTM_SCR_TAP	144500
TTM_SCR_BRK	20800
TTM_SCR_HLD	90000
TTM_SCR_SLD	37500
TTM_SCR_ALL	292800
TTM_SCR_S	283250
TTM_SCR_SS	292000
TTM_RAT_ACV	10027

