VERSION	0.00.00	1.03.00
FES_MODE	0
BPM_DEF	208.000	208.000	208.000	208.000
MET_DEF	4	4
RESOLUTION	384
CLK_DEF	384
COMPATIBLE_CODE	MA2

BPM	0	0	208.000
MET	0	0	4	4

TAP	1	0	5
TAP	1	192	4
TAP	1	192	5
TAP	2	0	5
TAP	2	192	4
TAP	2	192	6
TAP	3	0	2
TAP	3	192	2
TAP	3	192	3
TAP	4	0	2
TAP	4	96	2
TAP	4	192	2
TAP	5	0	1
TAP	5	192	0
TAP	5	192	1
TAP	6	0	1
TAP	6	192	0
TAP	6	192	2
TAP	7	0	6
TAP	7	192	6
TAP	7	192	7
TAP	8	0	6
TAP	8	96	6
TAP	8	192	6
HLD	9	0	5	192
TAP	9	192	4
TAP	10	0	3
TAP	10	192	3
TAP	10	192	4
HLD	11	0	2	192
TAP	11	192	3
TAP	12	0	4
TAP	12	96	4
TAP	12	192	4
TAP	13	0	5
TAP	13	192	4
TAP	13	192	5
TAP	14	0	5
TAP	14	96	5
TAP	14	192	5
TAP	15	0	2
TAP	15	192	2
TAP	15	192	3
TAP	16	0	4
TAP	16	96	3
TAP	16	192	3
TAP	16	192	4
HLD	17	0	5	192
TAP	17	192	4
HLD	18	0	2	192
TAP	18	192	3
HLD	19	0	5	192
TAP	19	192	4
HLD	20	0	3	192
HLD	20	0	4	192
HLD	21	0	2	192
TAP	21	192	3
HLD	22	0	5	192
TAP	22	192	4
HLD	23	0	2	192
TAP	23	192	3
HLD	24	0	3	192
HLD	24	0	4	192
HLD	25	0	6	192
HLD	25	0	7	192
HLD	26	0	0	192
HLD	26	0	1	192
HLD	27	0	0	192
HLD	27	0	7	192
TAP	28	0	0
TAP	28	0	7
HLD	29	0	1	192
TAP	29	192	0
HLD	30	0	6	192
TAP	30	192	7
HLD	31	0	1	192
TAP	31	192	0
HLD	32	0	2	192
HLD	32	0	7	192
STR	33	0	0
SI_	33	0	0	96	288	5
STR	33	0	1
SI_	33	0	1	96	288	4
TAP	34	192	3
TAP	34	192	6
STR	35	0	6
SI_	35	0	6	96	288	3
STR	35	0	7
SI_	35	0	7	96	288	2
TAP	36	192	1
TAP	36	192	4
STR	37	0	0
SI_	37	0	0	96	288	3
STR	37	0	7
SI_	37	0	7	96	288	4
TAP	38	192	2
TAP	38	192	5
HLD	39	0	4	192
HLD	39	192	3	192
HLD	40	0	4	192
TAP	40	192	3
BST	41	0	3
SXR	41	0	3	96	480	0
BST	41	0	4
SXL	41	0	4	96	480	7
TAP	43	0	2
HLD	43	0	3	192
HLD	43	192	1	192
HLD	44	0	0	192
STR	44	192	1
SCR	44	192	1	96	480	7
TAP	46	192	0
TAP	46	192	7
HLD	47	0	1	192
TAP	47	192	0
HLD	48	0	6	192
TAP	48	192	7
STR	49	0	0
SI_	49	0	0	96	288	3
STR	49	0	7
SI_	49	0	7	96	288	4
TAP	50	192	2
TAP	50	192	5
HLD	51	0	4	192
TAP	51	0	5
HLD	51	192	6	192
HLD	52	0	7	192
STR	52	192	6
SXR	52	192	6	96	480	2
TAP	54	192	3
TAP	54	192	4
HLD	55	0	5	192
TAP	55	192	4
HLD	56	0	2	192
TAP	56	192	3
STR	57	0	3
SSR	57	0	3	96	480	7
TAP	57	0	4
HLD	59	0	0	576
BRK	60	192	7
TAP	61	0	5
TAP	61	192	4
TAP	61	192	6
TAP	62	0	5
TAP	62	96	5
TAP	62	192	4
TAP	62	192	5
TAP	63	0	2
TAP	63	192	1
TAP	63	192	3
TAP	64	0	2
TAP	64	96	2
TAP	64	192	2
TAP	64	192	3
TAP	65	0	6
TAP	65	192	5
TAP	65	192	7
TAP	66	0	6
TAP	66	96	6
TAP	66	192	6
TAP	66	192	7
TAP	67	0	1
TAP	67	192	0
TAP	67	192	2
HLD	68	0	3	192
HLD	68	0	4	192
STR	69	0	4
SI_	69	0	4	96	288	1
STR	69	0	5
SI_	69	0	5	96	288	0
TAP	70	192	2
TAP	70	192	7
STR	71	0	2
SI_	71	0	2	96	288	7
STR	71	0	3
SI_	71	0	3	96	288	6
TAP	72	192	0
TAP	72	192	5
STR	73	0	3
SI_	73	0	3	96	288	0
STR	73	0	4
SI_	73	0	4	96	288	7
TAP	74	192	1
TAP	74	192	6
HLD	75	0	7	192
HLD	75	192	0	192
HLD	76	0	7	192
TAP	76	192	0
BST	77	0	0
SXL	77	0	0	96	480	3
BST	77	0	7
SXR	77	0	7	96	480	4
TAP	79	0	1
TAP	79	96	1
TAP	79	192	0
TAP	79	192	1
TAP	80	0	2
TAP	80	96	3
TAP	80	192	1
TAP	80	192	4
TAP	81	0	6
TAP	81	96	6
TAP	81	192	6
TAP	81	192	7
TAP	82	0	5
TAP	82	96	4
TAP	82	192	3
TAP	82	192	6
TAP	83	0	2
TAP	83	96	2
TAP	83	192	1
TAP	83	192	3
TAP	84	0	5
TAP	84	96	5
TAP	84	192	4
TAP	84	192	6
TAP	85	0	3
TAP	85	0	4
TAP	85	96	3
TAP	85	96	4
STR	85	192	3
SCL	85	192	3	96	288	0
STR	85	192	4
SCR	85	192	4	96	288	7
TAP	87	0	2
TAP	87	96	2
TAP	87	192	2
TAP	87	192	3
TAP	88	0	1
TAP	88	96	0
TAP	88	192	2
TAP	88	192	7
TAP	89	0	5
TAP	89	96	5
TAP	89	192	4
TAP	89	192	5
TAP	90	0	6
TAP	90	96	7
TAP	90	192	0
TAP	90	192	5
TAP	91	0	1
TAP	91	96	1
TAP	91	192	0
TAP	91	192	2
TAP	92	0	6
TAP	92	96	6
TAP	92	192	5
TAP	92	192	7
TAP	93	0	0
STR	93	0	7
SSR	93	0	7	96	480	3
HLD	95	0	2	192
HLD	95	192	3	192
TAP	96	0	2
TAP	96	192	0
TAP	96	192	6
HLD	97	0	5	192
HLD	97	192	4	192
TAP	98	0	5
TAP	98	192	1
TAP	98	192	7
HLD	99	0	2	192
HLD	99	192	3	192
HLD	100	0	4	192
HLD	100	192	5	192
HLD	101	0	6	192
HLD	101	192	7	192
HLD	102	0	0	192
TAP	102	192	7
HLD	103	0	6	192
HLD	103	192	7	192
TAP	104	0	6
TAP	104	192	1
TAP	104	192	4
HLD	105	0	1	192
HLD	105	192	0	192
TAP	106	0	1
TAP	106	192	3
TAP	106	192	6
HLD	107	0	1	192
HLD	107	192	0	192
HLD	108	0	7	192
HLD	108	192	6	192
HLD	109	0	5	192
HLD	109	192	4	192
HLD	110	0	3	192
TAP	110	192	4
TAP	111	0	3
TAP	111	0	4

T_REC_TAP	176
T_REC_BRK	1
T_REC_XTP	0
T_REC_HLD	64
T_REC_XHO	0
T_REC_STR	20
T_REC_BST	4
T_REC_XST	0
T_REC_TTP	0
T_REC_THO	0
T_REC_SLD	24
T_REC_ALL	289
T_NUM_TAP	196
T_NUM_BRK	5
T_NUM_HLD	64
T_NUM_SLD	24
T_NUM_ALL	289
T_JUDGE_TAP	201
T_JUDGE_HLD	264
T_JUDGE_SLD	24
T_JUDGE_ALL	489
TTM_EACHPAIRS	67
TTM_SCR_TAP	98000
TTM_SCR_BRK	13000
TTM_SCR_HLD	64000
TTM_SCR_SLD	36000
TTM_SCR_ALL	211000
TTM_SCR_S	204200
TTM_SCR_SS	210500
TTM_RAT_ACV	10023

