VERSION	0.00.00	1.03.00
FES_MODE	0
BPM_DEF	208.000	208.000	208.000	208.000
MET_DEF	4	4
RESOLUTION	384
CLK_DEF	384
COMPATIBLE_CODE	MA2

BPM	0	0	208.000
MET	0	0	4	4

TAP	1	0	7
TAP	1	96	7
TAP	1	192	7
TAP	2	0	6
TAP	2	96	6
TAP	2	192	6
TAP	3	0	5
TAP	3	96	5
TAP	3	192	5
TAP	4	0	4
TAP	4	96	4
TAP	4	192	3
TAP	4	192	4
TAP	5	0	3
TAP	5	96	3
TAP	5	192	3
TAP	6	0	2
TAP	6	96	2
TAP	6	192	2
TAP	7	0	1
TAP	7	96	1
TAP	7	192	1
TAP	8	0	0
TAP	8	96	0
TAP	8	192	0
TAP	8	192	7
TAP	9	0	7
TAP	9	96	7
TAP	9	192	7
TAP	10	0	0
TAP	10	96	0
TAP	10	192	0
TAP	11	0	1
TAP	11	96	1
TAP	11	192	1
TAP	12	0	2
TAP	12	96	2
TAP	12	192	2
TAP	12	192	3
TAP	13	0	3
TAP	13	96	3
TAP	13	192	3
TAP	14	0	4
TAP	14	96	4
TAP	14	192	4
TAP	15	0	5
TAP	15	96	5
TAP	15	192	5
TAP	16	0	6
TAP	16	96	6
TAP	16	192	6
TAP	16	192	7
HLD	17	0	7	384
HLD	19	0	6	384
HLD	21	0	5	384
TAP	23	0	4
TAP	23	192	4
TAP	24	0	4
HLD	25	0	3	384
HLD	27	0	2	384
HLD	29	0	1	384
TAP	31	0	0
TAP	31	192	0
TAP	32	0	0
STR	33	0	7
SI_	33	0	7	96	672	4
STR	37	0	0
SI_	37	0	0	96	672	3
TAP	41	0	0
TAP	41	0	7
TAP	41	192	0
TAP	41	192	7
BRK	42	0	0
BRK	42	0	7
TAP	43	0	1
TAP	43	192	1
TAP	44	0	2
TAP	44	192	2
TAP	45	0	3
TAP	45	192	3
TAP	46	0	3
TAP	46	0	4
TAP	47	0	5
TAP	47	192	5
TAP	48	0	6
TAP	48	192	6
TAP	49	0	7
TAP	49	192	7
TAP	50	0	0
TAP	50	0	7
TAP	51	0	1
TAP	51	192	1
TAP	52	0	0
TAP	52	192	0
TAP	53	0	7
TAP	53	192	7
TAP	54	0	0
TAP	54	0	7
TAP	55	0	6
TAP	55	192	6
TAP	56	0	5
TAP	56	192	5
TAP	57	0	4
TAP	57	192	4
TAP	58	0	3
TAP	58	0	4
BRK	59	0	3
BRK	59	0	4
TAP	61	0	1
TAP	61	96	1
TAP	61	192	1
TAP	62	0	2
TAP	62	96	2
TAP	62	192	2
TAP	63	0	3
TAP	63	96	3
TAP	63	192	3
TAP	64	0	4
TAP	64	96	4
TAP	64	192	3
TAP	64	192	4
TAP	65	0	5
TAP	65	96	5
TAP	65	192	5
TAP	66	0	6
TAP	66	96	6
TAP	66	192	6
TAP	67	0	7
TAP	67	96	7
TAP	67	192	7
TAP	68	0	0
TAP	68	96	0
TAP	68	192	0
TAP	68	192	7
STR	69	0	1
SI_	69	0	1	96	672	5
STR	73	0	6
SI_	73	0	6	96	672	2
TAP	77	0	0
TAP	77	0	7
TAP	77	192	0
TAP	77	192	7
BRK	78	0	0
BRK	78	0	7
TAP	79	0	7
TAP	79	96	7
TAP	79	192	7
TAP	80	0	6
TAP	80	96	6
TAP	80	192	6
TAP	81	0	5
TAP	81	96	5
TAP	81	192	5
TAP	82	0	3
TAP	82	0	4
TAP	82	96	3
TAP	82	96	4
TAP	82	192	3
TAP	82	192	4
TAP	83	0	3
TAP	83	96	3
TAP	83	192	3
TAP	84	0	2
TAP	84	96	2
TAP	84	192	2
TAP	85	0	1
TAP	85	96	1
TAP	85	192	1
TAP	86	0	0
TAP	86	0	7
TAP	86	96	0
TAP	86	96	7
TAP	86	192	0
TAP	86	192	7
TAP	87	0	0
TAP	87	96	0
TAP	87	192	0
TAP	88	0	1
TAP	88	96	1
TAP	88	192	1
TAP	89	0	2
TAP	89	96	2
TAP	89	192	2
TAP	90	0	3
TAP	90	0	4
TAP	90	96	3
TAP	90	96	4
TAP	90	192	3
TAP	90	192	4
TAP	91	0	4
TAP	91	96	4
TAP	91	192	4
TAP	92	0	5
TAP	92	96	5
TAP	92	192	5
TAP	93	0	6
TAP	93	96	6
TAP	93	192	6
TAP	94	0	0
TAP	94	0	7
TAP	94	96	0
TAP	94	96	7
TAP	94	192	0
TAP	94	192	7
TAP	95	0	0
TAP	95	192	0
TAP	96	0	7
TAP	96	192	7
TAP	97	0	6
TAP	97	192	6
TAP	98	0	6
TAP	98	0	7
HLD	99	0	4	384
HLD	99	0	5	384
HLD	101	0	2	384
HLD	101	0	3	384
TAP	103	0	5
TAP	103	192	5
TAP	104	0	4
TAP	104	192	4
TAP	105	0	3
TAP	105	192	3
TAP	106	0	3
TAP	106	0	4
HLD	107	0	2	384
HLD	107	0	3	384
HLD	109	0	4	384
HLD	109	0	5	384
TAP	111	0	3
TAP	111	0	4

T_REC_TAP	202
T_REC_BRK	6
T_REC_XTP	0
T_REC_HLD	14
T_REC_XHO	0
T_REC_STR	4
T_REC_BST	0
T_REC_XST	0
T_REC_TTP	0
T_REC_THO	0
T_REC_SLD	4
T_REC_ALL	230
T_NUM_TAP	206
T_NUM_BRK	6
T_NUM_HLD	14
T_NUM_SLD	4
T_NUM_ALL	230
T_JUDGE_TAP	212
T_JUDGE_HLD	112
T_JUDGE_SLD	4
T_JUDGE_ALL	328
TTM_EACHPAIRS	36
TTM_SCR_TAP	103000
TTM_SCR_BRK	15600
TTM_SCR_HLD	14000
TTM_SCR_SLD	6000
TTM_SCR_ALL	138600
TTM_SCR_S	133900
TTM_SCR_SS	138000
TTM_RAT_ACV	10043

