VERSION	0.00.00	1.03.00
FES_MODE	0
BPM_DEF	158.000	158.000	158.000	158.000
MET_DEF	4	4
RESOLUTION	384
CLK_DEF	384
COMPATIBLE_CODE	MA2

BPM	0	0	158.000
MET	0	0	4	4

TAP	1	0	3
HLD	1	96	3	240
TAP	1	192	4
HLD	1	288	4	240
TAP	2	0	2
HLD	2	96	2	240
TAP	2	192	5
HLD	2	288	5	240
TAP	3	0	1
HLD	3	96	1	240
TAP	3	192	6
HLD	3	288	6	240
TAP	4	0	0
HLD	4	96	0	96
TAP	4	192	7
BRK	4	240	0
BRK	4	288	0
HLD	5	0	6	96
TAP	5	96	7
TAP	5	144	0
TAP	5	192	1
TAP	5	240	0
TAP	5	288	1
TAP	6	0	2
TAP	6	24	3
TAP	6	48	2
TAP	6	72	3
TAP	6	96	1
TAP	6	192	5
TAP	6	216	4
TAP	6	240	5
TAP	6	264	4
TAP	6	288	6
HLD	7	0	1	96
TAP	7	96	0
TAP	7	144	7
TAP	7	192	6
TAP	7	240	7
TAP	7	288	6
TAP	8	0	5
TAP	8	24	4
TAP	8	48	5
TAP	8	72	4
TAP	8	96	6
TAP	8	192	6
TAP	8	192	7
TAP	8	240	0
TAP	8	240	5
TAP	8	288	6
TAP	8	288	7
HLD	9	0	5	96
TAP	9	96	4
TAP	9	144	3
TAP	9	192	2
TAP	9	240	3
TAP	9	288	2
TAP	10	0	1
TAP	10	24	0
TAP	10	48	1
TAP	10	72	0
TAP	10	96	2
TAP	10	192	6
TAP	10	216	7
TAP	10	240	6
TAP	10	264	7
TAP	10	288	5
HLD	11	0	2	96
TAP	11	96	3
TAP	11	144	4
TAP	11	192	5
TAP	11	240	4
TAP	11	288	5
TAP	12	0	6
TAP	12	24	7
TAP	12	48	6
TAP	12	72	7
STR	12	96	5
SI_	12	96	5	96	48	1
TAP	12	192	1
TAP	12	192	5
STR	13	0	0
SXL	13	0	0	96	96	0
STR	13	192	7
SXR	13	192	7	96	96	7
HLD	14	0	2	192
TAP	14	96	3
TAP	14	192	1
TAP	14	240	1
TAP	14	288	1
TAP	14	288	2
STR	15	0	4
SI_	15	0	4	96	48	7
STR	15	192	3
SV_	15	192	3	96	72	6
HLD	16	0	7	192
TAP	16	96	0
TAP	16	192	6
TAP	16	240	6
TAP	16	288	5
TAP	16	288	6
STR	17	0	3
SI_	17	0	3	96	48	1
STR	17	0	4
SI_	17	0	4	96	48	0
STR	17	192	4
SI_	17	192	4	96	48	0
STR	17	192	5
SI_	17	192	5	96	48	7
HLD	18	0	1	192
TAP	18	96	0
TAP	18	192	2
TAP	18	240	2
TAP	18	288	0
TAP	18	288	3
STR	19	0	4
SCL	19	0	4	96	48	2
STR	19	0	7
SCR	19	0	7	96	48	1
TAP	19	192	5
TAP	19	192	6
TAP	19	288	0
TAP	19	288	3
STR	19	336	0
SCR	19	336	0	96	96	4
TAP	19	336	3
HLD	20	96	7	96
TAP	20	192	6
TAP	20	288	0
TAP	20	288	5
TAP	21	0	0
HLD	21	0	1	96
TAP	21	96	2
TAP	21	192	1
HLD	21	192	2	96
TAP	21	288	3
STR	22	0	4
SI_	22	0	4	96	48	6
HLD	22	0	5	96
TAP	22	192	4
STR	22	192	5
SI_	22	192	5	96	48	0
TAP	22	240	4
TAP	22	288	4
HLD	23	0	6	96
TAP	23	0	7
TAP	23	96	5
HLD	23	192	5	96
TAP	23	192	6
TAP	23	288	4
HLD	24	0	2	96
STR	24	0	3
SI_	24	0	3	96	48	1
STR	24	192	2
SI_	24	192	2	96	48	7
TAP	24	192	3
TAP	24	240	3
TAP	24	288	3
TAP	25	0	3
HLD	25	0	4	96
TAP	25	96	5
TAP	25	192	4
HLD	25	192	5	96
TAP	25	288	6
STR	26	0	6
SI_	26	0	6	96	48	0
HLD	26	0	7	96
TAP	26	192	6
STR	26	192	7
SI_	26	192	7	96	48	1
TAP	26	240	6
TAP	26	288	6
STR	27	0	0
SCL	27	0	0	96	48	6
STR	27	0	3
SCR	27	0	3	96	48	5
TAP	27	192	4
TAP	27	192	7
STR	27	240	4
SCL	27	240	4	96	96	1
TAP	27	240	7
STR	27	336	1
SCL	27	336	1	96	96	6
TAP	28	288	3
TAP	28	288	7
HLD	29	0	2	96
STR	29	96	1
SI_	29	96	1	96	48	4
TAP	29	192	7
BRK	29	288	6
TAP	29	288	7
HLD	30	0	5	96
STR	30	96	6
SI_	30	96	6	96	48	3
TAP	30	192	0
TAP	30	288	0
BRK	30	288	1
STR	31	0	3
SI_	31	0	3	96	48	6
STR	31	96	5
SI_	31	96	5	96	48	0
STR	31	192	1
SCL	31	192	1	96	48	6
SCR	31	192	1	96	48	4
BRK	32	0	1
BRK	32	0	6
BRK	32	96	2
BRK	32	96	5
BRK	32	192	0
BRK	32	192	7
HLD	33	0	6	192
TAP	33	96	5
HLD	33	192	3	96
BRK	33	288	4
HLD	34	0	1	96
STR	34	96	2
SI_	34	96	2	96	48	7
STR	34	192	5
SI_	34	192	5	96	48	0
TAP	34	288	4
HLD	35	0	1	192
TAP	35	96	3
HLD	35	192	5	192
TAP	35	288	3
TAP	36	0	7
TAP	36	96	1
TAP	36	96	3
TAP	36	192	2
TAP	36	192	6
HLD	37	0	6	144
TAP	37	48	5
TAP	37	96	4
HLD	37	144	3	144
TAP	37	192	4
TAP	37	240	5
HLD	37	288	6	96
TAP	37	336	4
HLD	38	0	2	96
TAP	38	48	4
STR	38	96	7
SCL	38	96	7	96	96	3
TAP	38	144	4
TAP	38	192	1
TAP	38	192	7
TAP	38	240	0
TAP	38	288	0
STR	39	0	1
SI_	39	0	1	96	48	5
TAP	39	96	2
STR	39	144	2
SCR	39	144	2	96	48	5
TAP	39	240	7
TAP	39	288	6
TAP	39	336	5
HLD	40	0	4	48
HLD	40	0	5	48
HLD	40	96	1	48
HLD	40	96	3	48
HLD	40	192	4	48
HLD	40	192	6	48
HLD	40	288	0	48
HLD	40	288	2	48
HLD	41	0	6	144
TAP	41	48	5
TAP	41	96	4
HLD	41	144	3	144
TAP	41	192	4
TAP	41	240	5
HLD	41	288	6	96
TAP	41	336	4
HLD	42	0	2	96
TAP	42	48	4
STR	42	96	7
SCL	42	96	7	96	96	3
TAP	42	144	4
TAP	42	192	1
TAP	42	192	7
TAP	42	240	0
TAP	42	288	0
STR	43	0	1
SLL	43	0	1	96	96	3
TAP	43	96	6
STR	43	144	6
SCL	43	144	6	96	72	3
TAP	43	240	7
TAP	43	288	0
TAP	43	336	1
TAP	44	0	2
TAP	44	24	3
TAP	44	48	2
TAP	44	72	3
TAP	44	96	1
TAP	44	120	4
TAP	44	144	1
TAP	44	168	4
TAP	44	192	1
TAP	44	240	6
TAP	44	240	7
TAP	44	288	0
TAP	44	288	5
HLD	45	0	1	144
TAP	45	48	2
TAP	45	96	3
HLD	45	144	4	144
TAP	45	192	3
TAP	45	240	2
HLD	45	288	1	96
TAP	45	336	3
HLD	46	0	5	96
TAP	46	48	3
STR	46	96	0
SCR	46	96	0	96	96	4
TAP	46	144	3
TAP	46	192	0
TAP	46	192	6
TAP	46	240	7
TAP	46	288	7
STR	47	0	6
SI_	47	0	6	96	48	2
TAP	47	96	5
STR	47	144	5
SCL	47	144	5	96	48	2
TAP	47	240	0
TAP	47	288	1
TAP	47	336	2
HLD	48	0	2	48
HLD	48	0	4	48
HLD	48	96	4	48
HLD	48	96	6	48
HLD	48	192	0	48
HLD	48	192	2	48
HLD	48	288	0	48
HLD	48	288	6	48
HLD	49	0	1	144
TAP	49	48	2
TAP	49	96	3
HLD	49	144	4	144
TAP	49	192	3
TAP	49	240	2
HLD	49	288	1	96
TAP	49	336	3
HLD	50	0	5	96
TAP	50	48	3
STR	50	96	0
SCR	50	96	0	96	96	4
TAP	50	144	3
TAP	50	192	0
TAP	50	192	6
TAP	50	240	7
TAP	50	288	7
STR	51	0	6
SLR	51	0	6	96	96	4
TAP	51	96	1
STR	51	144	1
SCR	51	144	1	96	72	4
TAP	51	240	0
TAP	51	288	7
TAP	51	336	6
TAP	52	0	5
TAP	52	48	6
TAP	52	72	4
TAP	52	96	5
TAP	52	144	6
TAP	52	168	4
TAP	52	192	5
BRK	52	240	0
BRK	52	288	0
BRK	52	288	7
HLD	53	0	6	288
TAP	53	96	7
TAP	53	192	1
TAP	53	288	1
TAP	54	0	2
TAP	54	24	3
TAP	54	48	1
TAP	54	72	4
TAP	54	96	2
TAP	54	192	5
TAP	54	216	4
TAP	54	240	6
TAP	54	264	3
TAP	54	288	5
HLD	55	0	1	288
TAP	55	96	0
TAP	55	192	6
TAP	55	288	6
TAP	56	0	5
TAP	56	24	4
TAP	56	48	6
TAP	56	72	3
STR	56	96	5
SLL	56	96	5	96	96	7
HLD	56	192	3	96
HLD	57	0	0	288
STR	57	0	5
SCR	57	0	5	96	192	2
STR	58	0	2
SCL	58	0	2	96	192	5
HLD	58	0	7	288
STR	59	0	6
SCL	59	0	6	96	192	2
STR	59	192	1
SCR	59	192	1	96	192	5
STR	60	0	6
SUR	60	0	6	96	192	0
STR	61	0	2
SCL	61	0	2	96	192	5
HLD	61	0	7	288
HLD	62	0	0	288
STR	62	0	5
SCR	62	0	5	96	192	2
STR	63	0	2
SI_	63	0	2	96	48	7
TAP	63	0	3
TAP	63	192	4
STR	63	192	5
SI_	63	192	5	96	48	0
TAP	64	0	1
TAP	64	0	7
TAP	64	48	6
TAP	64	72	3
TAP	64	96	5
TAP	64	144	6
TAP	64	168	3
TAP	64	192	5
BRK	64	240	0
BRK	64	240	7
BRK	64	288	1
BRK	64	288	6
HLD	65	0	5	144
TAP	65	48	6
TAP	65	96	7
HLD	65	144	0	144
TAP	65	192	7
TAP	65	240	6
HLD	65	288	5	96
TAP	65	336	7
HLD	66	0	1	96
TAP	66	48	7
STR	66	96	4
SCR	66	96	4	96	96	0
TAP	66	144	7
TAP	66	192	2
TAP	66	192	4
TAP	66	240	1
TAP	66	288	1
STR	67	0	2
SCR	67	0	2	96	72	5
TAP	67	96	1
STR	67	144	1
SCL	67	144	1	96	72	6
TAP	67	240	2
TAP	67	288	3
TAP	67	336	4
HLD	68	0	4	48
HLD	68	0	6	48
HLD	68	96	0	48
HLD	68	96	6	48
HLD	68	192	0	48
HLD	68	192	2	48
HLD	68	288	2	48
HLD	68	288	4	48
HLD	69	0	5	144
TAP	69	48	6
TAP	69	96	7
HLD	69	144	0	144
TAP	69	192	7
TAP	69	240	6
HLD	69	288	5	96
TAP	69	336	7
HLD	70	0	1	96
TAP	70	48	7
STR	70	96	4
SCR	70	96	4	96	96	0
TAP	70	144	7
TAP	70	192	2
TAP	70	192	4
TAP	70	240	1
TAP	70	288	1
STR	71	0	2
SLR	71	0	2	96	96	6
TAP	71	96	1
STR	71	144	1
SLL	71	144	1	96	96	5
TAP	71	240	2
TAP	71	288	1
TAP	71	336	0
TAP	72	0	0
TAP	72	0	7
TAP	72	48	6
TAP	72	72	3
STR	72	96	5
SI_	72	96	5	96	48	0
TAP	72	144	6
TAP	72	168	3
TAP	72	192	5
TAP	72	288	2
TAP	72	288	7
TAP	73	0	1
TAP	73	0	4
BRK	73	192	3
BRK	73	192	7
TAP	74	0	0
TAP	74	0	7
TAP	74	48	6
TAP	74	72	2
STR	74	96	4
SI_	74	96	4	96	48	0
TAP	74	144	6
TAP	74	168	2
TAP	74	192	4
BRK	74	288	2
BRK	74	288	7
STR	75	0	0
SI_	75	0	0	96	48	3
TAP	75	96	0
TAP	75	144	7
STR	75	192	6
SI_	75	192	6	96	48	3
TAP	75	240	7
TAP	75	288	6
TAP	76	0	2
TAP	76	24	3
TAP	76	48	1
TAP	76	72	4
TAP	76	96	2
TAP	76	192	5
TAP	76	216	4
TAP	76	240	6
TAP	76	264	3
TAP	76	288	5
STR	77	0	7
SI_	77	0	7	96	48	4
TAP	77	96	7
TAP	77	144	0
STR	77	192	1
SI_	77	192	1	96	48	4
TAP	77	240	0
TAP	77	288	1
TAP	78	0	5
TAP	78	24	4
TAP	78	48	6
TAP	78	72	3
TAP	78	96	5
TAP	78	192	6
TAP	78	192	7
TAP	78	240	0
TAP	78	240	5
TAP	78	288	6
TAP	78	288	7
STR	79	0	0
SI_	79	0	0	96	48	3
TAP	79	96	0
TAP	79	144	7
STR	79	192	6
SI_	79	192	6	96	48	3
TAP	79	240	7
TAP	79	288	6
TAP	80	0	1
TAP	80	24	0
TAP	80	48	2
TAP	80	72	7
TAP	80	96	1
TAP	80	192	6
TAP	80	216	7
TAP	80	240	5
TAP	80	264	0
TAP	80	288	6
STR	81	0	7
SI_	81	0	7	96	48	4
TAP	81	96	7
TAP	81	144	0
STR	81	192	1
SI_	81	192	1	96	48	4
TAP	81	240	0
TAP	81	288	1
TAP	82	0	6
TAP	82	24	7
TAP	82	48	5
TAP	82	72	0
STR	82	96	6
SI_	82	96	6	96	48	2
BRK	82	192	2
BRK	82	192	6

T_REC_TAP	336
T_REC_BRK	24
T_REC_XTP	0
T_REC_HLD	86
T_REC_XHO	0
T_REC_STR	68
T_REC_BST	0
T_REC_XST	0
T_REC_TTP	0
T_REC_THO	0
T_REC_SLD	69
T_REC_ALL	583
T_NUM_TAP	404
T_NUM_BRK	24
T_NUM_HLD	86
T_NUM_SLD	69
T_NUM_ALL	583
T_JUDGE_TAP	428
T_JUDGE_HLD	214
T_JUDGE_SLD	69
T_JUDGE_ALL	711
TTM_EACHPAIRS	77
TTM_SCR_TAP	202000
TTM_SCR_BRK	62400
TTM_SCR_HLD	86000
TTM_SCR_SLD	103500
TTM_SCR_ALL	453900
TTM_SCR_S	438000
TTM_SCR_SS	451500
TTM_RAT_ACV	10053

