VERSION	0.00.00	1.03.00
FES_MODE	0
BPM_DEF	158.000	158.000	158.000	158.000
MET_DEF	4	4
RESOLUTION	384
CLK_DEF	384
COMPATIBLE_CODE	MA2

BPM	0	0	158.000
MET	0	0	4	4

TAP	4	240	1
TAP	4	240	6
TAP	4	288	1
TAP	4	288	6
TAP	5	0	4
HLD	5	0	5	96
HLD	5	96	7	96
HLD	5	192	6	96
HLD	5	288	4	96
HLD	6	0	5	96
HLD	6	96	6	96
HLD	6	192	7	96
TAP	6	288	4
HLD	7	0	2	96
TAP	7	0	3
HLD	7	96	0	96
HLD	7	192	1	96
HLD	7	288	3	96
HLD	8	0	2	96
HLD	8	96	1	96
HLD	8	192	0	96
TAP	8	288	3
HLD	9	0	6	96
TAP	9	0	7
HLD	9	96	4	96
HLD	9	192	5	96
HLD	9	288	7	96
HLD	10	0	6	96
HLD	10	96	5	96
HLD	10	192	4	96
TAP	10	288	7
TAP	11	0	0
HLD	11	0	1	96
HLD	11	96	3	96
HLD	11	192	2	96
HLD	11	288	0	96
HLD	12	0	1	96
HLD	12	96	2	96
TAP	12	192	3
BRK	12	288	0
TAP	13	0	4
TAP	13	0	6
TAP	13	96	5
TAP	13	144	4
TAP	13	192	2
TAP	13	192	4
TAP	13	288	1
TAP	13	288	3
TAP	14	0	2
TAP	14	0	3
TAP	14	96	2
TAP	14	144	3
TAP	14	192	3
TAP	14	192	5
TAP	14	288	4
TAP	14	288	6
TAP	15	0	4
TAP	15	0	5
TAP	15	96	5
TAP	15	144	4
TAP	15	192	2
TAP	15	192	4
TAP	15	288	1
TAP	15	288	3
TAP	16	0	2
TAP	16	0	3
TAP	16	96	2
TAP	16	144	3
TAP	16	192	3
TAP	16	192	5
TAP	16	288	4
TAP	16	288	6
TAP	17	0	4
TAP	17	0	5
TAP	17	96	5
TAP	17	144	4
TAP	17	192	2
TAP	17	192	4
TAP	17	288	0
TAP	17	288	3
TAP	18	0	2
TAP	18	0	3
TAP	18	96	2
TAP	18	144	3
TAP	18	192	3
TAP	18	192	5
TAP	18	288	4
TAP	18	288	7
TAP	19	0	4
TAP	19	0	5
TAP	19	96	5
TAP	19	144	4
TAP	19	192	2
TAP	19	192	4
TAP	19	288	0
TAP	19	288	3
HLD	20	0	1	96
HLD	20	96	3	96
HLD	20	192	4	96
TAP	20	288	6
TAP	21	0	1
TAP	21	0	3
TAP	21	96	2
TAP	21	144	4
TAP	21	192	3
TAP	21	192	5
TAP	21	288	4
HLD	21	288	6	96
TAP	22	0	5
TAP	22	96	5
TAP	22	144	3
TAP	22	192	2
TAP	22	192	4
HLD	22	288	1	96
TAP	22	288	3
TAP	23	0	2
TAP	23	96	2
TAP	23	144	4
TAP	23	192	3
TAP	23	192	5
TAP	23	288	4
HLD	23	288	6	96
TAP	24	0	5
TAP	24	96	5
TAP	24	144	3
TAP	24	192	2
TAP	24	192	4
HLD	24	288	1	96
TAP	24	288	3
TAP	25	0	2
TAP	25	96	2
TAP	25	144	4
TAP	25	192	3
TAP	25	192	5
TAP	25	288	4
HLD	25	288	7	96
TAP	26	0	5
TAP	26	96	5
TAP	26	144	3
TAP	26	192	2
TAP	26	192	4
HLD	26	288	0	96
TAP	26	288	3
TAP	27	0	2
TAP	27	96	2
TAP	27	144	4
TAP	27	192	3
TAP	27	192	5
TAP	27	288	4
STR	27	288	7
SCL	27	288	7	96	192	0
TAP	28	288	0
TAP	28	288	7
TAP	29	0	3
TAP	29	0	4
TAP	29	96	4
TAP	29	96	6
TAP	29	192	5
HLD	29	192	7	96
TAP	29	288	5
TAP	30	0	3
TAP	30	0	4
TAP	30	96	1
TAP	30	96	3
HLD	30	192	0	96
TAP	30	192	2
TAP	30	288	2
TAP	31	0	3
TAP	31	0	4
TAP	31	96	4
TAP	31	96	6
TAP	31	192	3
TAP	31	192	4
TAP	31	288	1
TAP	31	288	3
BRK	32	0	0
BRK	32	96	7
BRK	32	192	1
BRK	32	192	6
TAP	33	0	3
TAP	33	0	5
TAP	33	96	1
TAP	33	96	3
HLD	33	192	0	96
TAP	33	192	2
TAP	33	288	2
TAP	34	0	2
TAP	34	0	4
TAP	34	96	4
TAP	34	96	6
TAP	34	192	5
HLD	34	192	7	96
TAP	34	288	5
STR	35	0	6
SI_	35	0	6	96	96	1
STR	35	192	2
SI_	35	192	2	96	96	5
TAP	36	0	7
TAP	36	96	0
TAP	36	192	0
TAP	36	192	7
TAP	36	240	1
TAP	36	240	6
TAP	36	288	1
TAP	36	288	6
TAP	37	0	0
TAP	37	48	0
TAP	37	96	7
TAP	37	144	7
TAP	37	192	2
TAP	37	240	2
TAP	37	288	5
TAP	37	336	5
TAP	38	0	0
TAP	38	48	7
TAP	38	96	2
TAP	38	144	5
HLD	38	192	0	96
TAP	38	240	7
TAP	38	288	7
TAP	39	0	2
TAP	39	0	3
TAP	39	96	1
TAP	39	96	5
TAP	39	192	4
TAP	39	192	5
STR	39	288	2
SCL	39	288	2	96	192	5
TAP	39	288	6
TAP	40	288	0
TAP	40	288	7
TAP	41	0	6
TAP	41	48	6
TAP	41	96	1
TAP	41	144	1
TAP	41	192	4
TAP	41	240	4
TAP	41	288	3
TAP	41	336	3
TAP	42	0	6
TAP	42	48	1
TAP	42	96	4
TAP	42	144	3
HLD	42	192	6	96
TAP	42	240	0
TAP	42	288	0
TAP	43	0	0
TAP	43	0	1
TAP	43	96	2
TAP	43	96	6
TAP	43	192	6
TAP	43	192	7
TAP	43	288	1
STR	43	288	5
SCR	43	288	5	96	192	2
TAP	44	288	0
TAP	44	288	7
TAP	45	0	7
TAP	45	48	7
TAP	45	96	0
TAP	45	144	0
TAP	45	192	4
TAP	45	240	4
TAP	45	288	3
TAP	45	336	3
TAP	46	0	7
TAP	46	48	0
TAP	46	96	4
TAP	46	144	3
HLD	46	192	7	96
TAP	46	240	0
TAP	46	288	0
TAP	47	0	4
TAP	47	0	5
TAP	47	96	2
TAP	47	96	6
TAP	47	192	2
TAP	47	192	3
TAP	47	288	1
STR	47	288	5
SCR	47	288	5	96	192	2
TAP	48	288	0
TAP	48	288	7
TAP	49	0	0
TAP	49	48	0
TAP	49	96	7
TAP	49	144	7
TAP	49	192	3
TAP	49	240	3
TAP	49	288	4
TAP	49	336	4
TAP	50	0	0
TAP	50	48	7
TAP	50	96	3
TAP	50	144	4
HLD	50	192	0	96
TAP	50	240	7
TAP	50	288	7
TAP	51	0	6
TAP	51	0	7
TAP	51	96	1
TAP	51	96	5
TAP	51	192	0
TAP	51	192	1
STR	51	288	2
SI_	51	288	2	96	192	5
STR	51	288	6
SI_	51	288	6	96	192	1
TAP	52	288	0
TAP	52	288	7
TAP	53	0	4
HLD	53	0	5	672
TAP	53	96	3
TAP	53	192	1
TAP	53	288	7
TAP	54	0	6
TAP	54	96	0
TAP	54	192	2
TAP	54	288	4
HLD	55	0	2	288
TAP	55	0	3
TAP	55	96	4
TAP	55	192	6
STR	55	288	0
SF_	55	288	0	96	144	4
TAP	56	192	1
TAP	56	192	7
HLD	57	0	4	384
HLD	58	0	6	384
HLD	59	0	4	384
HLD	60	0	3	384
HLD	61	0	1	384
HLD	62	0	3	288
TAP	62	288	4
TAP	63	0	3
TAP	63	0	5
TAP	63	144	2
TAP	63	192	2
TAP	63	192	4
TAP	63	336	6
TAP	64	0	0
TAP	64	0	6
TAP	64	96	1
TAP	64	96	7
TAP	64	192	0
TAP	64	192	7
TAP	64	240	1
TAP	64	240	6
TAP	64	288	1
TAP	64	288	6
TAP	65	0	1
TAP	65	48	1
TAP	65	96	7
TAP	65	144	7
TAP	65	192	3
TAP	65	240	3
TAP	65	288	4
TAP	65	336	4
TAP	66	0	1
TAP	66	48	7
TAP	66	96	3
TAP	66	144	4
HLD	66	192	1	96
TAP	66	240	0
TAP	66	288	0
TAP	67	0	4
TAP	67	0	6
TAP	67	96	3
TAP	67	96	4
TAP	67	144	2
TAP	67	192	1
STR	67	288	0
SCL	67	288	0	96	192	2
TAP	67	288	2
TAP	68	288	3
TAP	68	288	4
TAP	69	0	6
TAP	69	48	6
TAP	69	96	0
TAP	69	144	0
TAP	69	192	4
TAP	69	240	4
TAP	69	288	3
TAP	69	336	3
TAP	70	0	6
TAP	70	48	0
TAP	70	96	4
TAP	70	144	3
HLD	70	192	6	96
TAP	70	240	7
TAP	70	288	7
TAP	71	0	1
TAP	71	0	3
TAP	71	96	3
TAP	71	96	4
TAP	71	144	5
TAP	71	192	6
TAP	71	288	5
STR	71	288	7
SCR	71	288	7	96	192	5
TAP	72	288	3
TAP	72	288	4
TAP	72	336	5
TAP	73	0	4
TAP	73	0	6
TAP	73	144	2
TAP	73	192	1
TAP	73	192	3
TAP	73	336	2
TAP	73	336	7
TAP	74	0	2
TAP	74	0	7
TAP	74	96	0
TAP	74	96	5
TAP	74	192	1
TAP	74	192	6
TAP	74	240	0
TAP	74	240	7
TAP	74	288	0
TAP	74	288	7
HLD	75	0	4	96
TAP	75	0	5
HLD	75	96	7	96
HLD	75	192	5	96
STR	75	288	4
SI_	75	288	4	96	96	0
STR	76	96	1
SI_	76	96	1	96	48	3
TAP	76	288	7
TAP	77	0	2
HLD	77	0	3	96
HLD	77	96	0	96
HLD	77	192	2	96
STR	77	288	3
SI_	77	288	3	96	96	7
STR	78	96	6
SI_	78	96	6	96	48	4
TAP	78	288	0
HLD	79	0	4	96
TAP	79	0	5
HLD	79	96	7	96
HLD	79	192	5	96
STR	79	288	4
SI_	79	288	4	96	96	0
STR	80	96	1
SI_	80	96	1	96	48	3
TAP	80	288	7
TAP	81	0	2
HLD	81	0	3	96
HLD	81	96	0	96
HLD	81	192	2	96
TAP	81	288	3
TAP	82	0	4
TAP	82	0	5
STR	82	96	2
SI_	82	96	2	96	48	5
STR	82	96	6
SI_	82	96	6	96	48	1

T_REC_TAP	349
T_REC_BRK	5
T_REC_XTP	0
T_REC_HLD	66
T_REC_XHO	0
T_REC_STR	19
T_REC_BST	0
T_REC_XST	0
T_REC_TTP	0
T_REC_THO	0
T_REC_SLD	19
T_REC_ALL	458
T_NUM_TAP	368
T_NUM_BRK	5
T_NUM_HLD	66
T_NUM_SLD	19
T_NUM_ALL	458
T_JUDGE_TAP	373
T_JUDGE_HLD	182
T_JUDGE_SLD	19
T_JUDGE_ALL	574
TTM_EACHPAIRS	115
TTM_SCR_TAP	184000
TTM_SCR_BRK	13000
TTM_SCR_HLD	66000
TTM_SCR_SLD	28500
TTM_SCR_ALL	291500
TTM_SCR_S	282300
TTM_SCR_SS	291000
TTM_RAT_ACV	10017

