VERSION	0.00.00	1.03.00
FES_MODE	0
BPM_DEF	158.000	158.000	158.000	158.000
MET_DEF	4	4
RESOLUTION	384
CLK_DEF	384
COMPATIBLE_CODE	MA2

BPM	0	0	158.000
MET	0	0	4	4

TAP	5	0	4
TAP	5	96	4
TAP	5	192	3
TAP	5	192	4
TAP	6	0	2
TAP	6	96	2
TAP	6	96	3
TAP	6	192	5
TAP	6	288	4
TAP	6	288	5
TAP	7	0	3
TAP	7	96	3
TAP	7	192	3
TAP	7	192	4
TAP	8	0	4
TAP	8	96	3
TAP	8	192	2
TAP	8	192	5
TAP	9	0	0
TAP	9	96	0
TAP	9	192	0
TAP	9	192	7
TAP	10	0	6
TAP	10	96	6
TAP	10	96	7
TAP	10	192	1
TAP	10	288	0
TAP	10	288	1
TAP	11	0	7
TAP	11	96	7
TAP	11	192	0
TAP	11	192	7
TAP	12	0	0
TAP	12	0	7
TAP	12	96	0
TAP	12	96	7
TAP	12	192	1
TAP	12	192	6
HLD	13	0	5	192
TAP	13	192	4
TAP	14	0	3
TAP	14	96	3
TAP	14	192	4
HLD	15	0	2	192
TAP	15	192	3
TAP	16	0	4
TAP	16	96	4
TAP	16	192	3
TAP	16	192	4
HLD	17	0	6	192
TAP	17	192	7
TAP	18	0	0
TAP	18	96	0
TAP	18	192	0
TAP	18	192	7
HLD	19	0	1	192
TAP	19	192	0
TAP	20	0	7
TAP	20	96	0
TAP	20	192	1
TAP	20	192	6
HLD	21	0	2	192
TAP	21	96	3
TAP	21	192	3
TAP	22	0	4
TAP	22	96	3
TAP	22	192	3
TAP	22	192	4
HLD	23	0	5	192
TAP	23	96	4
TAP	23	192	4
TAP	24	0	3
TAP	24	0	4
TAP	24	96	3
TAP	24	96	4
TAP	24	192	3
TAP	24	192	4
HLD	25	0	1	192
TAP	25	96	0
TAP	25	192	0
TAP	26	0	7
TAP	26	96	0
TAP	26	192	0
TAP	26	192	7
HLD	27	0	6	192
TAP	27	96	7
TAP	27	192	7
STR	28	0	0
SI_	28	0	0	96	192	3
STR	28	0	7
SI_	28	0	7	96	192	4
HLD	29	0	5	96
TAP	29	96	4
TAP	29	192	4
TAP	29	192	5
HLD	30	0	2	96
TAP	30	96	3
TAP	30	192	2
TAP	30	192	3
TAP	31	0	7
TAP	31	96	7
TAP	31	192	0
TAP	31	288	0
BRK	32	0	0
BRK	32	0	7
BRK	32	96	1
BRK	32	96	6
BRK	32	192	2
BRK	32	192	5
HLD	33	0	2	96
TAP	33	96	3
TAP	33	192	1
TAP	33	192	4
HLD	34	0	5	96
TAP	34	96	4
TAP	34	192	3
TAP	34	192	6
TAP	35	0	3
TAP	35	96	3
TAP	35	192	4
TAP	35	288	4
TAP	36	0	3
TAP	36	0	4
TAP	36	96	2
TAP	36	96	5
TAP	36	192	1
TAP	36	192	6
TAP	37	0	2
TAP	37	96	1
TAP	37	96	3
TAP	37	192	5
TAP	37	288	4
TAP	37	288	6
TAP	38	0	7
TAP	38	96	0
TAP	38	192	1
TAP	38	192	6
TAP	39	0	5
TAP	39	96	4
TAP	39	192	3
STR	39	288	2
SUL	39	288	2	96	240	5
TAP	41	0	4
TAP	41	96	5
TAP	41	192	3
TAP	41	192	6
TAP	41	288	7
TAP	42	0	0
TAP	42	96	1
TAP	42	192	2
TAP	42	192	3
TAP	43	0	0
TAP	43	0	1
TAP	43	96	0
TAP	43	96	1
TAP	43	192	6
TAP	43	192	7
STR	43	288	6
SI_	43	288	6	96	192	3
STR	43	288	7
SI_	43	288	7	96	192	2
TAP	45	0	5
TAP	45	96	4
TAP	45	96	6
TAP	45	192	2
TAP	45	288	1
TAP	45	288	3
TAP	46	0	0
TAP	46	96	7
TAP	46	192	1
TAP	46	192	6
TAP	47	0	2
TAP	47	96	3
TAP	47	192	4
STR	47	288	5
SUR	47	288	5	96	240	2
TAP	49	0	3
TAP	49	96	2
TAP	49	192	1
TAP	49	192	4
TAP	49	288	0
TAP	50	0	7
TAP	50	96	6
TAP	50	192	4
TAP	50	192	5
TAP	51	0	6
TAP	51	0	7
TAP	51	96	6
TAP	51	96	7
TAP	51	192	0
TAP	51	192	1
STR	51	288	0
SI_	51	288	0	96	192	5
STR	51	288	1
SI_	51	288	1	96	192	4
TAP	53	0	2
TAP	53	96	2
TAP	53	192	3
TAP	53	288	3
TAP	54	0	4
TAP	54	96	5
TAP	54	192	3
TAP	54	192	6
TAP	55	0	5
TAP	55	96	5
TAP	55	192	4
TAP	55	288	4
TAP	56	0	3
TAP	56	96	4
TAP	56	192	2
TAP	56	192	5
HLD	57	0	2	384
HLD	58	0	3	384
HLD	59	0	4	384
TAP	60	0	5
TAP	60	192	3
TAP	60	192	6
HLD	61	0	4	576
HLD	62	0	3	192
TAP	63	0	2
TAP	63	0	3
TAP	63	192	4
TAP	63	192	5
TAP	64	0	3
TAP	64	0	4
TAP	64	96	2
TAP	64	96	5
BRK	64	192	1
BRK	64	192	6
TAP	65	0	1
TAP	65	96	0
TAP	65	96	2
TAP	65	192	6
TAP	65	288	5
TAP	65	288	7
TAP	66	0	0
TAP	66	0	1
TAP	66	96	2
TAP	66	96	7
TAP	66	192	3
TAP	66	192	6
TAP	67	0	5
TAP	67	96	4
TAP	67	192	3
STR	67	288	2
SCL	67	288	2	96	240	5
TAP	69	0	4
TAP	69	96	3
TAP	69	96	5
TAP	69	192	6
TAP	69	288	5
TAP	69	288	7
TAP	70	0	0
TAP	70	0	1
TAP	70	96	2
TAP	70	96	3
TAP	70	192	1
TAP	70	192	4
TAP	71	0	2
TAP	71	0	3
TAP	71	96	2
TAP	71	96	3
TAP	71	192	4
TAP	71	192	5
STR	71	288	4
SCL	71	288	4	96	192	1
STR	71	288	5
SCR	71	288	5	96	192	0
HLD	73	0	4	96
HLD	73	0	6	96
HLD	73	192	1	96
HLD	73	192	3	96
TAP	74	0	2
TAP	74	0	5
TAP	74	96	1
TAP	74	96	6
BRK	74	192	0
BRK	74	192	7
TAP	75	0	3
TAP	75	96	4
TAP	75	192	3
TAP	75	192	4
TAP	75	288	2
TAP	75	288	5
TAP	76	0	1
TAP	76	96	0
TAP	76	96	2
TAP	76	192	6
TAP	76	288	5
TAP	76	288	7
TAP	77	0	4
TAP	77	96	3
TAP	77	192	3
TAP	77	192	4
TAP	77	288	3
TAP	77	288	4
TAP	78	0	2
TAP	78	0	5
TAP	78	96	1
TAP	78	96	6
TAP	78	192	0
TAP	78	192	7
TAP	79	0	7
TAP	79	96	0
TAP	79	192	0
TAP	79	192	7
TAP	79	288	1
TAP	79	288	6
TAP	80	0	5
TAP	80	96	4
TAP	80	96	6
TAP	80	192	2
TAP	80	288	1
TAP	80	288	3
TAP	81	0	0
TAP	81	96	7
TAP	81	192	0
TAP	81	192	7
STR	81	288	0
SI_	81	288	0	96	192	4
STR	81	288	7
SI_	81	288	7	96	192	3

T_REC_TAP	265
T_REC_BRK	10
T_REC_XTP	0
T_REC_HLD	21
T_REC_XHO	0
T_REC_STR	13
T_REC_BST	0
T_REC_XST	0
T_REC_TTP	0
T_REC_THO	0
T_REC_SLD	13
T_REC_ALL	322
T_NUM_TAP	278
T_NUM_BRK	10
T_NUM_HLD	21
T_NUM_SLD	13
T_NUM_ALL	322
T_JUDGE_TAP	288
T_JUDGE_HLD	88
T_JUDGE_SLD	13
T_JUDGE_ALL	389
TTM_EACHPAIRS	91
TTM_SCR_TAP	139000
TTM_SCR_BRK	26000
TTM_SCR_HLD	21000
TTM_SCR_SLD	19500
TTM_SCR_ALL	205500
TTM_SCR_S	198400
TTM_SCR_SS	204500
TTM_RAT_ACV	10048

