VERSION	0.00.00	1.03.00
FES_MODE	0
BPM_DEF	158.000	158.000	158.000	158.000
MET_DEF	4	4
RESOLUTION	384
CLK_DEF	384
COMPATIBLE_CODE	MA2

BPM	0	0	158.000
MET	0	0	4	4

TAP	1	0	0
TAP	2	0	7
TAP	3	0	0
TAP	4	0	7
TAP	5	0	0
TAP	5	192	0
TAP	6	0	1
TAP	6	192	1
TAP	7	0	2
TAP	7	192	2
TAP	8	0	3
TAP	8	96	4
TAP	8	192	3
TAP	9	0	4
TAP	9	192	4
TAP	10	0	5
TAP	10	192	5
TAP	11	0	6
TAP	11	192	6
TAP	12	0	7
TAP	12	96	0
TAP	12	192	7
HLD	13	0	0	192
TAP	14	0	7
TAP	14	96	7
TAP	14	192	7
HLD	15	0	6	192
TAP	16	0	5
TAP	16	96	5
TAP	16	192	5
HLD	17	0	4	192
TAP	18	0	3
TAP	18	96	3
TAP	18	192	3
HLD	19	0	2	192
TAP	20	0	1
TAP	20	96	1
TAP	20	192	1
TAP	21	0	0
TAP	21	96	0
TAP	21	192	0
TAP	22	0	1
TAP	22	96	1
TAP	22	192	0
TAP	22	192	1
TAP	23	0	2
TAP	23	96	2
TAP	23	192	2
TAP	24	0	3
TAP	24	96	3
TAP	24	192	3
TAP	24	192	4
TAP	25	0	4
TAP	25	96	4
TAP	25	192	4
TAP	26	0	5
TAP	26	96	5
TAP	26	192	4
TAP	26	192	5
TAP	27	0	6
TAP	27	96	6
TAP	27	192	6
TAP	28	0	7
TAP	28	96	7
TAP	28	192	0
TAP	28	192	7
STR	29	0	0
SI_	29	0	0	96	288	4
STR	31	0	7
SI_	31	0	7	96	288	3
STR	33	0	0
SI_	33	0	0	96	288	5
STR	35	0	7
SI_	35	0	7	96	288	2
BRK	37	0	0
TAP	37	96	0
TAP	37	192	0
TAP	38	0	1
TAP	38	96	1
TAP	38	192	1
TAP	39	0	2
TAP	39	96	2
TAP	39	192	2
TAP	40	0	3
TAP	40	0	4
TAP	40	96	3
TAP	40	96	4
TAP	40	192	3
TAP	40	192	4
TAP	41	0	4
TAP	41	96	4
TAP	41	192	4
TAP	42	0	5
TAP	42	96	5
TAP	42	192	5
TAP	43	0	6
TAP	43	96	6
TAP	43	192	6
TAP	44	0	0
TAP	44	0	7
TAP	44	96	0
TAP	44	96	7
TAP	44	192	0
TAP	44	192	7
TAP	45	0	6
TAP	45	96	6
TAP	45	192	6
TAP	46	0	5
TAP	46	96	5
TAP	46	192	5
TAP	47	0	4
TAP	47	96	4
TAP	47	192	4
TAP	48	0	3
TAP	48	0	4
TAP	48	96	3
TAP	48	96	4
TAP	48	192	3
TAP	48	192	4
TAP	49	0	3
TAP	49	96	3
TAP	49	192	3
TAP	50	0	2
TAP	50	96	2
TAP	50	192	2
TAP	51	0	1
TAP	51	96	1
TAP	51	192	1
TAP	52	0	0
TAP	52	0	7
TAP	52	96	0
TAP	52	96	7
TAP	52	192	0
TAP	52	192	7
HLD	53	0	1	576
HLD	54	0	0	192
HLD	55	0	6	576
HLD	56	0	7	192
STR	57	0	0
SI_	57	0	0	96	288	3
STR	59	0	7
SI_	59	0	7	96	288	4
STR	61	0	3
SI_	61	0	3	96	288	0
STR	63	0	4
SI_	63	0	4	96	288	7
BRK	65	0	0
TAP	65	96	0
TAP	65	192	1
TAP	65	288	1
TAP	66	0	2
TAP	66	0	3
TAP	66	96	2
TAP	66	96	3
TAP	66	192	2
TAP	66	192	3
TAP	67	0	4
TAP	67	96	4
TAP	67	192	5
TAP	67	288	5
TAP	68	0	6
TAP	68	0	7
TAP	68	96	6
TAP	68	96	7
TAP	68	192	6
TAP	68	192	7
TAP	69	0	7
TAP	69	96	7
TAP	69	192	6
TAP	69	288	6
TAP	70	0	4
TAP	70	0	5
TAP	70	96	4
TAP	70	96	5
TAP	70	192	4
TAP	70	192	5
TAP	71	0	3
TAP	71	96	3
TAP	71	192	2
TAP	71	288	2
TAP	72	0	0
TAP	72	0	1
TAP	72	96	0
TAP	72	96	1
TAP	72	192	0
TAP	72	192	1
TAP	73	0	6
TAP	73	0	7
TAP	73	192	6
TAP	73	192	7
TAP	74	0	0
TAP	74	0	7
TAP	74	96	0
TAP	74	96	7
BRK	74	192	0
BRK	74	192	7
TAP	75	0	1
TAP	75	96	1
TAP	75	192	1
TAP	76	0	2
TAP	76	0	3
TAP	76	96	2
TAP	76	96	3
TAP	76	192	2
TAP	76	192	3
TAP	77	0	3
TAP	77	96	3
TAP	77	192	3
TAP	78	0	4
TAP	78	0	5
TAP	78	96	4
TAP	78	96	5
TAP	78	192	4
TAP	78	192	5
TAP	79	0	5
TAP	79	96	5
TAP	79	192	5
TAP	80	0	6
TAP	80	0	7
TAP	80	96	6
TAP	80	96	7
TAP	80	192	6
TAP	80	192	7
TAP	81	0	7
TAP	81	96	7
TAP	81	192	7
TAP	82	0	0
TAP	82	0	7
TAP	82	96	0
TAP	82	96	7
TAP	82	192	0
TAP	82	192	7

T_REC_TAP	204
T_REC_BRK	4
T_REC_XTP	0
T_REC_HLD	8
T_REC_XHO	0
T_REC_STR	8
T_REC_BST	0
T_REC_XST	0
T_REC_TTP	0
T_REC_THO	0
T_REC_SLD	8
T_REC_ALL	232
T_NUM_TAP	212
T_NUM_BRK	4
T_NUM_HLD	8
T_NUM_SLD	8
T_NUM_ALL	232
T_JUDGE_TAP	216
T_JUDGE_HLD	48
T_JUDGE_SLD	8
T_JUDGE_ALL	272
TTM_EACHPAIRS	45
TTM_SCR_TAP	106000
TTM_SCR_BRK	10400
TTM_SCR_HLD	8000
TTM_SCR_SLD	12000
TTM_SCR_ALL	136400
TTM_SCR_S	131950
TTM_SCR_SS	136000
TTM_RAT_ACV	10029

