VERSION	0.00.00	1.03.00
FES_MODE	0
BPM_DEF	190.000	190.000	190.000	190.000
MET_DEF	4	4
RESOLUTION	384
CLK_DEF	384
COMPATIBLE_CODE	MA2

BPM	0	0	190.000
MET	0	0	4	4

HLD	1	0	5	768
TAP	1	96	4
TAP	1	288	4
TAP	2	96	4
TAP	2	288	4
HLD	3	0	2	768
TAP	3	96	3
TAP	3	288	3
TAP	4	96	3
TAP	4	192	3
TAP	4	288	3
HLD	5	0	6	384
TAP	5	96	3
TAP	5	192	4
TAP	5	288	5
HLD	6	0	1	384
TAP	6	96	4
TAP	6	192	3
TAP	6	288	2
HLD	7	0	7	384
TAP	7	96	4
TAP	7	192	5
TAP	7	288	6
TAP	8	0	2
TAP	8	96	2
TAP	8	96	5
TAP	8	192	3
TAP	8	216	4
TAP	8	240	3
TAP	8	264	4
TAP	8	288	3
TAP	8	312	4
TAP	8	336	3
TAP	8	360	4
STR	9	0	3
SI_	9	0	3	96	48	7
STR	9	96	4
SI_	9	96	4	96	48	6
STR	9	192	3
SI_	9	192	3	96	48	7
STR	9	288	4
SI_	9	288	4	96	48	6
STR	10	0	3
SI_	10	0	3	96	48	1
STR	10	96	4
SI_	10	96	4	96	48	0
STR	10	192	3
SI_	10	192	3	96	48	1
STR	10	288	4
SI_	10	288	4	96	48	0
STR	11	0	3
SI_	11	0	3	96	48	7
STR	11	96	4
SCR	11	96	4	96	48	6
STR	11	192	3
SI_	11	192	3	96	48	7
STR	11	288	4
SCR	11	288	4	96	48	6
STR	12	0	3
SUR	12	0	3	96	96	6
TAP	12	288	0
TAP	12	288	5
STR	13	0	4
SI_	13	0	4	96	48	0
STR	13	96	3
SI_	13	96	3	96	48	1
STR	13	192	4
SI_	13	192	4	96	48	0
STR	13	288	3
SI_	13	288	3	96	48	1
STR	14	0	4
SI_	14	0	4	96	48	6
STR	14	96	3
SI_	14	96	3	96	48	7
STR	14	192	4
SI_	14	192	4	96	48	6
STR	14	288	3
SI_	14	288	3	96	48	7
STR	15	0	4
SI_	15	0	4	96	48	0
STR	15	96	3
SCL	15	96	3	96	48	1
STR	15	192	4
SI_	15	192	4	96	48	0
STR	15	288	3
SCL	15	288	3	96	48	1
STR	16	0	4
SUL	16	0	4	96	96	1
TAP	16	288	0
STR	16	288	7
SI_	16	288	7	96	48	4
SCR	16	288	7	96	48	4
BRK	17	0	7
TAP	17	144	2
TAP	17	192	2
TAP	17	192	3
TAP	17	288	1
STR	17	336	1
SI_	17	336	1	96	48	6
STR	18	48	5
SI_	18	48	5	96	48	2
BRK	18	144	1
TAP	18	240	0
TAP	18	288	0
TAP	18	336	0
TAP	19	0	5
TAP	19	48	5
TAP	19	96	1
TAP	19	144	1
HLD	19	192	0	96
HLD	19	192	7	96
TAP	19	336	5
TAP	19	336	7
TAP	20	48	0
TAP	20	48	2
TAP	20	144	1
TAP	20	144	6
TAP	20	240	1
TAP	20	240	7
STR	20	288	1
SV_	20	288	1	96	48	4
STR	20	288	7
SV_	20	288	7	96	48	4
BRK	21	0	1
BRK	21	0	7
TAP	21	144	5
TAP	21	192	4
TAP	21	192	5
TAP	21	288	6
STR	21	336	6
SI_	21	336	6	96	48	1
STR	22	48	2
SI_	22	48	2	96	48	5
BRK	22	144	6
TAP	22	240	7
TAP	22	288	7
TAP	22	336	7
TAP	23	0	2
TAP	23	48	2
TAP	23	96	6
TAP	23	144	6
TAP	23	192	0
TAP	23	192	7
TAP	23	240	0
TAP	23	240	7
TAP	23	288	0
TAP	23	288	7
HLD	23	336	0	96
HLD	23	336	7	96
TAP	24	144	0
TAP	24	144	7
STR	24	192	0
SI_	24	192	0	96	48	5
STR	24	192	7
SI_	24	192	7	96	48	2
BRK	24	288	0
BRK	24	288	7
STR	25	0	2
SI_	25	0	2	96	48	0
STR	25	96	3
SI_	25	96	3	96	48	7
STR	25	192	2
SI_	25	192	2	96	48	0
STR	25	288	3
SI_	25	288	3	96	48	7
STR	26	0	2
SI_	26	0	2	96	48	6
STR	26	96	3
SI_	26	96	3	96	48	5
STR	26	192	2
SI_	26	192	2	96	48	6
STR	26	288	3
SI_	26	288	3	96	48	5
STR	27	0	2
SI_	27	0	2	96	48	0
STR	27	96	3
SI_	27	96	3	96	48	7
STR	27	192	2
SI_	27	192	2	96	48	0
STR	27	288	3
SI_	27	288	3	96	48	7
STR	28	0	2
SXR	28	0	2	96	96	6
TAP	28	288	0
STR	28	288	7
SLL	28	288	7	96	72	2
BRK	29	0	7
TAP	29	144	0
TAP	29	192	0
TAP	29	192	7
TAP	29	288	1
STR	29	336	1
SI_	29	336	1	96	48	4
STR	30	48	5
SI_	30	48	5	96	48	0
BRK	30	144	1
TAP	30	240	3
TAP	30	288	3
TAP	30	336	3
TAP	31	0	4
TAP	31	48	4
TAP	31	96	1
TAP	31	144	1
HLD	31	192	0	96
HLD	31	192	7	96
TAP	31	336	5
TAP	31	336	7
TAP	32	48	0
TAP	32	48	2
TAP	32	144	1
TAP	32	144	6
TAP	32	240	0
TAP	32	240	7
STR	32	288	0
SI_	32	288	0	96	48	4
TAP	32	288	7
BRK	33	0	0
TAP	33	144	7
TAP	33	192	0
TAP	33	192	7
TAP	33	288	6
STR	33	336	6
SI_	33	336	6	96	48	3
STR	34	48	2
SI_	34	48	2	96	48	7
BRK	34	144	6
TAP	34	240	4
TAP	34	288	4
TAP	34	336	4
TAP	35	0	3
TAP	35	48	3
TAP	35	96	6
TAP	35	144	6
TAP	35	192	0
TAP	35	192	7
TAP	35	240	0
TAP	35	240	7
TAP	35	288	0
TAP	35	288	7
TAP	36	0	1
TAP	36	0	6
TAP	36	96	2
TAP	36	96	5
TAP	36	192	3
TAP	36	192	4
STR	36	288	3
SI_	36	288	3	96	48	0
TAP	37	0	7
TAP	37	96	7
TAP	37	192	5
TAP	37	192	6
STR	37	288	3
SI_	37	288	3	96	48	0
TAP	38	96	1
STR	38	96	7
SI_	38	96	7	96	48	4
STR	38	288	3
SI_	38	288	3	96	48	0
TAP	39	96	1
STR	39	96	7
SI_	39	96	7	96	48	4
STR	39	288	3
SI_	39	288	3	96	48	0
TAP	39	288	5
TAP	40	96	1
STR	40	96	7
SI_	40	96	7	96	48	4
STR	40	288	1
SI_	40	288	1	96	48	6
TAP	41	0	4
TAP	41	96	3
TAP	41	192	1
TAP	41	192	2
STR	41	288	1
SI_	41	288	1	96	48	6
STR	42	96	5
SI_	42	96	5	96	48	2
TAP	42	96	7
STR	42	288	1
SI_	42	288	1	96	48	6
STR	43	0	5
SI_	43	0	5	96	48	2
STR	43	96	3
SI_	43	96	3	96	48	0
STR	43	192	7
SI_	43	192	7	96	48	4
BST	43	288	3
SV_	43	288	3	96	48	0
SV_	43	288	3	96	48	6
BST	44	96	3
SLL	44	96	3	96	72	4
BST	44	96	5
SLR	44	96	5	96	72	4
STR	45	0	1
SI_	45	0	1	96	48	6
TAP	45	0	7
TAP	45	96	5
TAP	45	192	3
STR	45	192	5
SI_	45	192	5	96	48	2
TAP	45	288	1
HLD	46	0	5	96
STR	46	0	7
SUL	46	0	7	96	48	2
TAP	46	192	0
TAP	46	192	1
STR	46	288	0
SCR	46	288	0	96	96	4
STR	47	0	4
SCR	47	0	4	96	96	0
STR	47	96	0
SCR	47	96	0	96	96	4
STR	47	192	4
SCR	47	192	4	96	96	0
STR	47	288	0
SCR	47	288	0	96	192	7
SUR	47	288	0	96	192	7
TAP	48	288	1
TAP	48	288	6
STR	49	0	1
SI_	49	0	1	96	48	6
TAP	49	0	7
TAP	49	96	5
TAP	49	192	3
STR	49	192	5
SI_	49	192	5	96	48	2
TAP	49	288	1
STR	50	0	0
SI_	50	0	0	96	48	4
STR	50	96	7
SI_	50	96	7	96	48	3
STR	50	192	0
SI_	50	192	0	96	48	5
STR	50	288	7
SCL	50	288	7	96	96	3
STR	51	0	3
SCL	51	0	3	96	96	7
TAP	51	96	7
TAP	51	192	3
STR	51	288	4
SUL	51	288	4	96	288	1
STR	51	288	5
SXL	51	288	5	96	288	0
STR	53	0	2
SI_	53	0	2	96	48	5
SI_	53	0	2	96	48	7
STR	53	192	1
SI_	53	192	1	96	48	4
STR	53	192	6
SI_	53	192	6	96	48	1
STR	54	0	5
SI_	54	0	5	96	48	0
SI_	54	0	5	96	48	2
STR	54	192	1
SI_	54	192	1	96	48	6
STR	54	192	6
SI_	54	192	6	96	48	3
STR	55	0	5
SCR	55	0	5	96	96	1
STR	55	96	1
SCR	55	96	1	96	96	5
STR	55	192	5
SCR	55	192	5	96	96	1
TAP	55	288	1
TAP	56	0	5
TAP	56	96	0
TAP	56	96	4
TAP	56	192	6
TAP	56	192	7
STR	56	240	6
SUR	56	240	6	96	96	3
STR	56	240	7
SCR	56	240	7	96	96	2
TAP	57	192	0
TAP	57	192	1
STR	57	240	0
SCL	57	240	0	96	96	5
STR	57	240	1
SUL	57	240	1	96	96	4
TAP	58	96	3
TAP	58	96	6
TAP	58	192	0
TAP	58	192	7
TAP	58	288	4
TAP	58	288	5
STR	59	0	5
SI_	59	0	5	96	48	1
STR	59	0	6
SI_	59	0	6	96	48	0
STR	59	192	1
SI_	59	192	1	96	48	7
STR	59	192	2
SI_	59	192	2	96	48	6
STR	60	0	5
SUR	60	0	5	96	96	2
STR	60	0	6
SCR	60	0	6	96	96	1
STR	60	288	0
SCR	60	288	0	96	48	3
TAP	60	288	7
TAP	61	0	0
STR	61	0	7
SCL	61	0	7	96	48	4
STR	61	96	0
SCR	61	96	0	96	48	3
TAP	61	96	7
TAP	61	192	0
STR	61	192	7
SCL	61	192	7	96	48	4
BRK	61	288	0
TAP	61	288	7
TAP	62	0	2
TAP	62	0	3
TAP	62	96	3
TAP	62	96	6
TAP	62	192	1
TAP	62	192	4
STR	62	288	0
SCR	62	288	0	96	48	3
TAP	62	288	7
TAP	63	0	0
STR	63	0	7
SCL	63	0	7	96	48	4
STR	63	96	0
SCR	63	96	0	96	48	3
TAP	63	96	7
TAP	63	192	0
STR	63	192	7
SCL	63	192	7	96	48	4
BRK	63	288	0
TAP	63	288	7
TAP	64	0	2
TAP	64	0	3
TAP	64	96	4
TAP	64	96	5
TAP	64	192	0
TAP	64	240	0
STR	64	288	0
SCR	64	288	0	96	48	3
TAP	64	288	7
TAP	65	0	0
STR	65	0	7
SCL	65	0	7	96	48	4
STR	65	96	0
SCR	65	96	0	96	48	3
TAP	65	96	7
TAP	65	192	0
STR	65	192	7
SCL	65	192	7	96	48	4
BRK	65	288	0
TAP	65	288	7
TAP	66	0	2
TAP	66	0	3
TAP	66	96	3
TAP	66	96	6
TAP	66	192	1
TAP	66	192	4
STR	66	288	0
SCR	66	288	0	96	48	3
TAP	66	288	7
TAP	67	0	0
STR	67	0	7
SCL	67	0	7	96	48	4
STR	67	96	0
SCR	67	96	0	96	48	3
TAP	67	96	7
TAP	67	192	0
STR	67	192	7
SCL	67	192	7	96	48	4
BRK	67	288	0
TAP	67	288	7
TAP	68	0	2
TAP	68	0	3
TAP	68	96	4
TAP	68	96	5
TAP	68	192	0
TAP	68	192	7
BRK	68	288	2
BRK	68	288	5
STR	69	0	5
SI_	69	0	5	96	48	7
STR	69	96	4
SI_	69	96	4	96	48	0
STR	69	192	5
SI_	69	192	5	96	48	7
STR	69	288	4
SI_	69	288	4	96	48	0
STR	70	0	5
SI_	70	0	5	96	48	1
STR	70	96	4
SI_	70	96	4	96	48	2
STR	70	192	5
SI_	70	192	5	96	48	1
STR	70	288	4
SI_	70	288	4	96	48	2
STR	71	0	5
SI_	71	0	5	96	48	7
STR	71	96	4
SI_	71	96	4	96	48	0
STR	71	192	5
SI_	71	192	5	96	48	7
STR	71	288	4
SI_	71	288	4	96	48	0
STR	72	0	5
SXL	72	0	5	96	96	1
TAP	72	288	2
TAP	72	288	7
BRK	73	0	0
TAP	73	144	1
TAP	73	144	7
TAP	73	192	1
TAP	73	192	7
TAP	73	288	3
TAP	73	288	4
STR	74	0	0
SI_	74	0	0	96	48	4
STR	74	0	6
SI_	74	0	6	96	48	2
TAP	74	192	3
TAP	74	240	0
TAP	74	240	6
TAP	74	336	0
TAP	74	336	6
BRK	75	0	1
TAP	75	144	4
TAP	75	144	6
TAP	75	192	4
TAP	75	192	6
STR	75	288	0
SSL	75	288	0	96	96	4
TAP	75	288	7
TAP	76	192	3
TAP	76	240	0
TAP	76	240	5
TAP	76	336	0
TAP	76	336	5
BRK	77	0	2
TAP	77	144	3
TAP	77	144	4
STR	77	192	3
SXR	77	192	3	96	192	0
STR	77	192	4
SXL	77	192	4	96	192	7
TAP	78	192	5
TAP	78	240	4
TAP	78	240	6
TAP	78	336	4
TAP	78	336	6
BRK	79	0	3
TAP	79	144	1
TAP	79	144	5
TAP	79	192	2
TAP	79	192	6
TAP	79	240	1
TAP	79	240	5
TAP	79	288	2
TAP	79	288	6
STR	79	336	1
SI_	79	336	1	96	48	6
TAP	80	0	1
STR	80	48	5
SI_	80	48	5	96	48	2
TAP	80	96	5
TAP	80	144	0
STR	80	192	0
SF_	80	192	0	96	48	4
BRK	80	288	0
TAP	81	0	2
STR	81	0	6
SI_	81	0	6	96	48	2
TAP	81	96	0
STR	81	192	1
SI_	81	192	1	96	48	5
TAP	81	192	5
TAP	81	288	7
STR	82	0	2
SUR	82	0	2	96	48	7
HLD	82	0	5	96
TAP	82	192	0
TAP	82	192	1
STR	82	288	7
SCL	82	288	7	96	96	3
STR	83	0	3
SCL	83	0	3	96	96	7
STR	83	96	7
SCL	83	96	7	96	96	3
STR	83	192	3
SCL	83	192	3	96	96	7
STR	83	288	7
SCL	83	288	7	96	192	0
SUL	83	288	7	96	192	0
TAP	84	288	1
TAP	84	288	6
STR	85	0	1
SI_	85	0	1	96	48	5
TAP	85	0	5
TAP	85	96	7
TAP	85	192	2
STR	85	192	6
SI_	85	192	6	96	48	2
TAP	85	288	0
STR	86	0	0
SI_	86	0	0	96	48	4
STR	86	96	7
SI_	86	96	7	96	48	3
STR	86	192	0
SI_	86	192	0	96	48	5
STR	86	288	7
SI_	86	288	7	96	48	2
TAP	87	0	0
STR	87	96	3
SI_	87	96	3	96	48	0
STR	87	96	4
SI_	87	96	4	96	48	7
BRK	87	192	3
BRK	87	192	4
STR	87	288	2
SXR	87	288	2	96	288	7
STR	87	288	3
SUR	87	288	3	96	288	6
STR	89	0	6
SI_	89	0	6	96	48	0
SI_	89	0	6	96	48	2
STR	89	192	1
SI_	89	192	1	96	48	4
STR	89	192	4
SI_	89	192	4	96	48	7
STR	90	0	1
SI_	90	0	1	96	48	5
SI_	90	0	1	96	48	7
STR	90	192	3
SI_	90	192	3	96	48	0
STR	90	192	6
SI_	90	192	6	96	48	3
STR	91	0	5
SCR	91	0	5	96	96	1
STR	91	96	1
SCR	91	96	1	96	96	5
STR	91	192	5
SCR	91	192	5	96	96	1
TAP	91	288	1
TAP	92	0	5
TAP	92	96	3
TAP	92	96	4
BRK	92	192	2
BRK	92	192	7
BST	92	240	0
SI_	92	240	0	96	48	5
BST	92	240	1
SI_	92	240	1	96	48	4
BRK	92	336	0
BRK	92	336	1
TAP	93	96	3
TAP	93	96	4
BRK	93	192	0
BRK	93	192	5
BST	93	240	6
SI_	93	240	6	96	48	3
BST	93	240	7
SI_	93	240	7	96	48	2
BRK	93	336	6
BRK	93	336	7
TAP	94	96	1
TAP	94	96	5
BST	94	192	0
SI_	94	192	0	96	48	3
BST	94	192	7
SI_	94	192	7	96	48	4
BRK	94	288	0
BRK	94	288	7
STR	95	0	1
SI_	95	0	1	96	48	7
STR	95	0	2
SI_	95	0	2	96	48	6
STR	95	192	5
SI_	95	192	5	96	48	1
STR	95	192	6
SI_	95	192	6	96	48	0
STR	96	0	1
SCL	96	0	1	96	96	6
STR	96	0	2
SUL	96	0	2	96	96	5
TAP	96	288	0
STR	96	288	4
SCR	96	288	4	96	48	7
STR	97	0	3
SCL	97	0	3	96	48	0
TAP	97	0	4
TAP	97	96	3
STR	97	96	4
SCR	97	96	4	96	48	7
STR	97	192	3
SCL	97	192	3	96	48	0
TAP	97	192	4
TAP	97	288	3
BRK	97	288	4
TAP	98	0	6
TAP	98	0	7
TAP	98	96	2
TAP	98	96	7
TAP	98	192	0
TAP	98	192	5
TAP	98	288	3
STR	98	288	4
SCR	98	288	4	96	48	7
STR	99	0	3
SCL	99	0	3	96	48	0
TAP	99	0	4
TAP	99	96	3
STR	99	96	4
SCR	99	96	4	96	48	7
STR	99	192	3
SCL	99	192	3	96	48	0
TAP	99	192	4
TAP	99	288	3
BRK	99	288	4
TAP	100	0	6
TAP	100	0	7
TAP	100	96	0
TAP	100	96	1
TAP	100	192	4
TAP	100	240	4
TAP	100	288	0
STR	100	288	4
SCR	100	288	4	96	48	7
STR	101	0	3
SCL	101	0	3	96	48	0
TAP	101	0	4
TAP	101	96	3
STR	101	96	4
SCR	101	96	4	96	48	7
STR	101	192	3
SCL	101	192	3	96	48	0
TAP	101	192	4
TAP	101	288	3
BRK	101	288	4
TAP	102	0	6
TAP	102	0	7
TAP	102	96	2
TAP	102	96	7
TAP	102	192	0
TAP	102	192	5
TAP	102	288	3
STR	102	288	4
SCR	102	288	4	96	48	7
STR	103	0	3
SCL	103	0	3	96	48	0
TAP	103	0	4
TAP	103	96	3
STR	103	96	4
SCR	103	96	4	96	48	7
STR	103	192	3
SCL	103	192	3	96	48	0
TAP	103	192	4
TAP	103	288	3
BRK	103	288	4
TAP	104	0	6
TAP	104	0	7
TAP	104	96	3
TAP	104	96	4
TAP	104	192	0
TAP	104	192	7
BRK	104	288	2
BRK	104	288	5
STR	105	0	5
SI_	105	0	5	96	48	0
STR	105	96	4
SI_	105	96	4	96	48	1
STR	105	192	5
SI_	105	192	5	96	48	0
STR	105	288	3
SI_	105	288	3	96	48	0
STR	106	0	4
SI_	106	0	4	96	48	7
STR	106	96	3
SI_	106	96	3	96	48	0
STR	106	192	4
SI_	106	192	4	96	48	7
STR	106	288	2
SI_	106	288	2	96	48	7
STR	107	0	3
SI_	107	0	3	96	48	6
STR	107	96	2
SI_	107	96	2	96	48	7
STR	107	192	3
SI_	107	192	3	96	48	6
STR	107	288	1
SI_	107	288	1	96	48	6
STR	108	0	2
SXL	108	0	2	96	96	5
TAP	108	288	1
TAP	108	288	6
STR	109	0	2
SI_	109	0	2	96	48	7
STR	109	96	3
SI_	109	96	3	96	48	6
STR	109	192	2
SI_	109	192	2	96	48	7
STR	109	288	4
SI_	109	288	4	96	48	7
STR	110	0	3
SI_	110	0	3	96	48	0
STR	110	96	4
SI_	110	96	4	96	48	7
STR	110	192	3
SI_	110	192	3	96	48	0
STR	110	288	5
SI_	110	288	5	96	48	0
STR	111	0	4
SI_	111	0	4	96	48	1
STR	111	96	5
SI_	111	96	5	96	48	0
STR	111	192	4
SI_	111	192	4	96	48	1
STR	111	288	6
SI_	111	288	6	96	48	1
TAP	112	0	4
TAP	112	48	4
TAP	112	144	3
TAP	112	144	7
TAP	112	240	0
TAP	112	240	4
HLD	112	336	2	336
HLD	112	336	6	336
TAP	113	336	0
TAP	113	336	4

T_REC_TAP	315
T_REC_BRK	40
T_REC_XTP	0
T_REC_HLD	15
T_REC_XHO	0
T_REC_STR	215
T_REC_BST	9
T_REC_XST	0
T_REC_TTP	0
T_REC_THO	0
T_REC_SLD	232
T_REC_ALL	826
T_NUM_TAP	530
T_NUM_BRK	49
T_NUM_HLD	15
T_NUM_SLD	232
T_NUM_ALL	826
T_JUDGE_TAP	579
T_JUDGE_HLD	86
T_JUDGE_SLD	232
T_JUDGE_ALL	897
TTM_EACHPAIRS	178
TTM_SCR_TAP	265000
TTM_SCR_BRK	127400
TTM_SCR_HLD	15000
TTM_SCR_SLD	348000
TTM_SCR_ALL	755400
TTM_SCR_S	728000
TTM_SCR_SS	750500
TTM_RAT_ACV	10065

