VERSION	0.00.00	1.03.00
FES_MODE	0
BPM_DEF	190.000	190.000	190.000	190.000
MET_DEF	4	4
RESOLUTION	384
CLK_DEF	384
COMPATIBLE_CODE	MA2

BPM	0	0	190.000
MET	0	0	4	4

HLD	1	0	4	96
TAP	1	96	3
TAP	1	192	4
TAP	1	240	4
TAP	1	288	3
HLD	2	0	4	96
TAP	2	96	3
TAP	2	192	4
TAP	2	240	4
TAP	2	288	3
HLD	3	0	4	96
TAP	3	96	3
TAP	3	192	4
TAP	3	240	4
TAP	3	288	3
HLD	4	0	4	288
TAP	4	96	3
TAP	4	192	3
TAP	4	288	3
HLD	5	0	5	96
TAP	5	96	2
TAP	5	192	5
TAP	5	240	5
TAP	5	288	2
HLD	6	0	5	96
TAP	6	96	2
TAP	6	192	5
TAP	6	240	5
TAP	6	288	2
HLD	7	0	5	96
TAP	7	96	2
TAP	7	192	5
TAP	7	240	5
TAP	7	288	2
TAP	8	0	4
TAP	8	48	4
TAP	8	96	2
TAP	8	96	5
TAP	8	192	3
TAP	8	240	4
TAP	8	288	3
TAP	8	336	4
TAP	9	0	1
TAP	9	96	0
TAP	9	96	1
TAP	9	192	3
TAP	9	192	4
TAP	9	288	3
TAP	9	288	4
TAP	10	0	6
TAP	10	96	6
TAP	10	96	7
TAP	10	192	3
TAP	10	192	4
TAP	10	288	3
TAP	10	288	4
TAP	11	0	1
TAP	11	96	0
TAP	11	96	1
TAP	11	192	3
TAP	11	192	4
TAP	11	288	3
TAP	11	288	4
TAP	12	0	6
TAP	12	96	6
TAP	12	96	7
TAP	12	192	3
TAP	12	192	4
TAP	12	288	3
TAP	12	288	4
TAP	13	0	1
TAP	13	96	0
TAP	13	96	2
TAP	13	192	3
TAP	13	192	4
TAP	13	288	3
TAP	13	288	4
TAP	14	0	6
TAP	14	96	5
TAP	14	96	7
TAP	14	192	3
TAP	14	192	4
TAP	14	288	3
TAP	14	288	4
TAP	15	0	1
TAP	15	96	0
TAP	15	96	2
TAP	15	192	3
TAP	15	192	4
TAP	15	288	3
TAP	15	288	4
TAP	16	0	6
TAP	16	96	5
TAP	16	96	7
TAP	16	192	3
TAP	16	192	4
TAP	16	288	3
TAP	16	288	4
BRK	17	0	2
BRK	17	0	7
TAP	17	192	0
TAP	17	288	1
HLD	18	0	2	288
TAP	18	96	4
TAP	18	192	3
TAP	18	288	4
HLD	19	0	5	288
TAP	19	96	3
TAP	19	192	4
TAP	19	288	3
TAP	19	336	3
TAP	19	336	4
TAP	20	48	1
TAP	20	48	3
TAP	20	144	4
TAP	20	144	6
TAP	20	240	3
TAP	20	288	4
BRK	21	0	0
BRK	21	0	5
TAP	21	192	7
TAP	21	288	6
HLD	22	0	5	288
TAP	22	96	2
TAP	22	192	4
TAP	22	288	3
HLD	23	0	1	96
TAP	23	96	0
HLD	23	192	6	96
TAP	23	288	7
TAP	24	0	3
TAP	24	0	4
STR	24	96	3
SV_	24	96	3	96	96	1
STR	24	96	4
SV_	24	96	4	96	96	6
TAP	25	0	2
TAP	25	96	1
TAP	25	96	7
TAP	25	192	3
TAP	25	192	4
TAP	25	288	3
TAP	25	288	4
TAP	26	0	5
TAP	26	96	0
TAP	26	96	6
TAP	26	192	3
TAP	26	192	4
TAP	26	288	3
TAP	26	288	4
TAP	27	0	2
TAP	27	96	1
TAP	27	96	7
TAP	27	192	3
TAP	27	192	4
TAP	27	288	3
TAP	27	288	4
TAP	28	0	5
TAP	28	96	0
TAP	28	96	6
TAP	28	192	3
TAP	28	192	4
TAP	28	288	3
TAP	28	288	4
BRK	29	0	1
BRK	29	0	7
TAP	29	192	0
TAP	29	288	1
HLD	30	0	2	288
TAP	30	96	1
TAP	30	192	3
TAP	30	288	3
HLD	31	0	5	288
TAP	31	96	6
TAP	31	192	4
TAP	31	288	4
TAP	31	336	4
TAP	31	336	5
TAP	32	48	1
TAP	32	48	3
TAP	32	144	4
TAP	32	144	6
TAP	32	240	3
TAP	32	288	4
BRK	33	0	0
BRK	33	0	6
TAP	33	192	7
TAP	33	288	6
HLD	34	0	5	288
TAP	34	96	6
TAP	34	192	4
TAP	34	288	3
HLD	35	0	2	96
TAP	35	96	0
HLD	35	192	5	96
TAP	35	288	7
TAP	36	0	2
TAP	36	0	3
TAP	36	96	4
TAP	36	96	5
BRK	36	192	1
BRK	36	192	6
HLD	37	0	0	96
HLD	37	0	7	96
HLD	37	192	1	96
HLD	37	192	6	96
TAP	38	0	0
TAP	38	0	7
TAP	38	96	1
TAP	38	96	6
HLD	38	192	3	96
HLD	38	192	4	96
TAP	39	0	0
TAP	39	0	7
TAP	39	96	1
TAP	39	96	6
TAP	39	192	3
TAP	39	192	4
TAP	39	288	2
TAP	39	288	5
TAP	40	0	0
TAP	40	0	7
STR	40	96	0
SI_	40	96	0	96	48	3
STR	40	96	7
SI_	40	96	7	96	48	4
HLD	41	0	5	96
HLD	41	0	6	96
HLD	41	192	1	96
HLD	41	192	6	96
TAP	42	0	5
TAP	42	0	6
TAP	42	96	1
TAP	42	96	6
HLD	42	192	1	96
HLD	42	192	2	96
TAP	43	0	5
TAP	43	0	6
TAP	43	96	1
TAP	43	96	2
TAP	43	192	0
TAP	43	192	7
TAP	43	288	3
TAP	43	288	4
STR	44	0	1
SV_	44	0	1	96	48	4
STR	44	0	7
SV_	44	0	7	96	48	4
TAP	44	192	0
TAP	44	192	5
BST	45	0	0
SI_	45	0	0	96	48	4
BST	45	0	1
SI_	45	0	1	96	48	3
TAP	45	192	5
TAP	45	288	6
STR	46	0	6
SI_	46	0	6	96	48	4
STR	46	0	7
SI_	46	0	7	96	48	3
TAP	46	192	2
TAP	46	288	1
HLD	47	0	0	96
HLD	47	96	7	96
HLD	47	192	6	96
HLD	47	288	5	96
STR	48	0	4
SCR	48	0	4	96	192	3
HLD	49	0	4	96
TAP	49	96	3
TAP	49	192	0
TAP	49	192	5
TAP	49	288	0
TAP	49	288	5
HLD	50	0	3	96
TAP	50	96	4
TAP	50	192	2
TAP	50	192	7
TAP	50	288	2
TAP	50	288	7
TAP	51	0	3
TAP	51	0	4
TAP	51	96	2
TAP	51	96	5
HLD	51	192	0	96
HLD	51	192	7	96
TAP	52	0	0
TAP	52	0	4
TAP	52	96	2
TAP	52	96	6
TAP	52	192	3
TAP	52	240	4
TAP	52	288	3
STR	53	0	0
SI_	53	0	0	96	48	4
STR	53	0	1
SI_	53	0	1	96	48	3
TAP	53	192	5
TAP	53	288	6
STR	54	0	6
SI_	54	0	6	96	48	4
STR	54	0	7
SI_	54	0	7	96	48	3
TAP	54	192	2
TAP	54	288	1
HLD	55	0	0	96
HLD	55	96	7	96
HLD	55	192	6	96
HLD	55	288	5	96
TAP	56	0	4
TAP	56	96	1
TAP	56	96	6
TAP	56	192	6
TAP	56	192	7
HLD	56	240	6	240
STR	56	240	7
SCR	56	240	7	96	144	4
TAP	57	192	0
TAP	57	192	1
STR	57	240	0
SCL	57	240	0	96	144	3
HLD	57	240	1	240
TAP	58	192	3
TAP	58	192	4
TAP	58	288	1
TAP	58	288	7
TAP	59	0	0
TAP	59	0	6
TAP	59	96	0
TAP	59	96	6
HLD	59	192	3	96
HLD	59	192	4	96
STR	60	0	1
SLR	60	0	1	96	192	0
STR	60	0	7
SLL	60	0	7	96	192	0
TAP	61	0	2
TAP	61	0	6
TAP	61	96	1
TAP	61	96	5
TAP	61	192	2
TAP	61	192	6
TAP	61	288	1
TAP	61	288	5
TAP	62	0	3
HLD	62	0	7	192
TAP	62	96	0
TAP	62	192	4
TAP	62	288	0
TAP	62	288	7
TAP	63	0	2
TAP	63	0	6
TAP	63	96	1
TAP	63	96	5
TAP	63	192	2
TAP	63	192	6
TAP	63	288	1
TAP	63	288	5
HLD	64	0	3	192
TAP	64	0	7
TAP	64	96	4
TAP	64	192	0
TAP	64	288	3
TAP	64	288	4
TAP	65	0	2
TAP	65	0	6
TAP	65	96	1
TAP	65	96	5
TAP	65	192	2
TAP	65	192	6
TAP	65	288	1
TAP	65	288	5
TAP	66	0	3
HLD	66	0	7	192
TAP	66	96	0
TAP	66	192	4
TAP	66	288	0
TAP	66	288	7
TAP	67	0	2
TAP	67	0	6
TAP	67	96	1
TAP	67	96	5
TAP	67	192	2
TAP	67	192	6
TAP	67	288	1
TAP	67	288	5
HLD	68	0	3	96
TAP	68	0	7
TAP	68	96	4
BRK	68	192	0
BRK	68	192	2
TAP	69	0	0
TAP	69	0	5
TAP	69	96	0
TAP	69	96	5
TAP	69	192	3
TAP	69	192	4
TAP	69	288	3
TAP	69	288	4
TAP	70	0	2
TAP	70	0	7
TAP	70	96	2
TAP	70	96	7
TAP	70	192	3
TAP	70	192	4
TAP	70	288	3
TAP	70	288	4
TAP	71	0	0
TAP	71	0	5
TAP	71	96	0
TAP	71	96	5
TAP	71	192	3
TAP	71	192	4
TAP	71	288	3
TAP	71	288	4
TAP	72	0	2
TAP	72	0	7
TAP	72	96	2
TAP	72	96	7
TAP	72	192	3
TAP	72	192	4
TAP	72	288	3
TAP	72	288	4
BRK	73	0	0
HLD	73	0	5	384
TAP	73	192	3
TAP	73	288	3
TAP	74	0	4
STR	74	96	6
SI_	74	96	6	96	48	2
STR	74	96	7
SI_	74	96	7	96	48	1
BRK	75	0	1
HLD	75	0	6	384
TAP	75	192	4
TAP	75	288	4
TAP	76	0	5
STR	76	96	0
SI_	76	96	0	96	48	2
STR	76	96	7
SI_	76	96	7	96	48	3
BRK	77	0	2
HLD	77	0	7	384
TAP	77	192	5
TAP	77	288	5
TAP	78	0	6
STR	78	96	0
SI_	78	96	0	96	48	4
STR	78	96	1
SI_	78	96	1	96	48	3
HLD	79	0	0	384
BRK	79	0	3
TAP	79	192	6
TAP	79	288	6
TAP	80	0	7
STR	80	96	7
SF_	80	96	7	96	96	3
BST	81	0	1
SI_	81	0	1	96	48	4
BST	81	0	7
SI_	81	0	7	96	48	4
TAP	81	192	2
TAP	81	288	1
STR	82	0	0
SI_	82	0	0	96	48	3
STR	82	0	6
SI_	82	0	6	96	48	3
TAP	82	192	5
TAP	82	288	6
HLD	83	0	7	96
HLD	83	96	0	96
HLD	83	192	1	96
HLD	83	288	2	96
STR	84	0	3
SCL	84	0	3	96	192	4
HLD	85	0	0	96
HLD	85	0	7	96
TAP	85	192	1
TAP	85	192	4
TAP	85	288	1
TAP	85	288	4
HLD	86	0	3	96
HLD	86	0	4	96
TAP	86	192	0
TAP	86	192	5
HLD	86	288	0	96
HLD	86	288	5	96
STR	87	96	3
SCL	87	96	3	96	96	0
STR	87	96	4
SCR	87	96	4	96	96	7
TAP	88	0	0
TAP	88	0	4
TAP	88	96	2
TAP	88	96	6
TAP	88	192	3
TAP	88	240	4
TAP	88	288	3
BST	89	0	0
SI_	89	0	0	96	48	3
BST	89	0	6
SI_	89	0	6	96	48	3
TAP	89	192	5
TAP	89	288	6
STR	90	0	1
SI_	90	0	1	96	48	4
STR	90	0	7
SI_	90	0	7	96	48	4
TAP	90	192	2
TAP	90	288	1
HLD	91	0	0	96
HLD	91	96	7	96
HLD	91	192	6	96
HLD	91	288	5	96
TAP	92	0	4
TAP	92	96	1
TAP	92	96	6
TAP	92	192	6
TAP	92	192	7
STR	92	240	6
SCL	92	240	6	96	144	2
HLD	92	240	7	240
TAP	93	192	0
TAP	93	192	1
HLD	93	240	0	240
STR	93	240	1
SCR	93	240	1	96	144	5
TAP	94	192	3
TAP	94	192	4
TAP	94	288	0
TAP	94	288	6
TAP	95	0	1
TAP	95	0	7
TAP	95	96	1
TAP	95	96	7
HLD	95	192	3	96
HLD	95	192	4	96
STR	96	0	0
SLR	96	0	0	96	192	7
STR	96	0	6
SLL	96	0	6	96	192	7
TAP	97	0	2
TAP	97	0	6
TAP	97	96	1
TAP	97	96	5
TAP	97	192	2
TAP	97	192	6
TAP	97	288	1
TAP	97	288	5
HLD	98	0	3	192
TAP	98	0	7
TAP	98	96	2
TAP	98	192	7
TAP	98	288	4
TAP	98	288	5
TAP	99	0	2
TAP	99	0	6
TAP	99	96	1
TAP	99	96	5
TAP	99	192	2
TAP	99	192	6
TAP	99	288	1
TAP	99	288	5
TAP	100	0	3
HLD	100	0	7	192
TAP	100	96	6
TAP	100	192	3
TAP	100	288	0
TAP	100	288	1
TAP	101	0	2
TAP	101	0	6
TAP	101	96	1
TAP	101	96	5
TAP	101	192	2
TAP	101	192	6
TAP	101	288	1
TAP	101	288	5
HLD	102	0	3	192
TAP	102	0	7
TAP	102	96	2
TAP	102	192	7
TAP	102	288	4
TAP	102	288	5
TAP	103	0	2
TAP	103	0	6
TAP	103	96	1
TAP	103	96	5
TAP	103	192	2
TAP	103	192	6
TAP	103	288	1
TAP	103	288	5
TAP	104	0	3
HLD	104	0	7	96
TAP	104	96	6
BRK	104	192	0
BRK	104	192	2
TAP	105	0	0
TAP	105	0	2
TAP	105	96	1
TAP	105	96	7
TAP	105	192	3
TAP	105	192	4
TAP	105	288	3
TAP	105	288	4
TAP	106	0	5
TAP	106	0	7
TAP	106	96	0
TAP	106	96	6
TAP	106	192	3
TAP	106	192	4
TAP	106	288	3
TAP	106	288	4
TAP	107	0	0
TAP	107	0	2
TAP	107	96	1
TAP	107	96	7
TAP	107	192	3
TAP	107	192	4
TAP	107	288	3
TAP	107	288	4
TAP	108	0	5
TAP	108	0	7
TAP	108	96	0
TAP	108	96	6
TAP	108	192	3
TAP	108	192	4
TAP	108	288	3
TAP	108	288	4
TAP	109	0	0
TAP	109	0	2
TAP	109	96	1
TAP	109	96	7
TAP	109	192	4
TAP	109	240	3
TAP	109	288	4
TAP	110	0	5
TAP	110	0	7
TAP	110	96	0
TAP	110	96	6
TAP	110	192	3
TAP	110	240	4
TAP	110	288	3
TAP	111	0	0
TAP	111	0	2
TAP	111	96	1
TAP	111	96	7
TAP	111	192	4
TAP	111	240	3
TAP	111	288	4
TAP	112	0	5
TAP	112	0	7
TAP	112	96	0
TAP	112	96	6
TAP	112	192	3
TAP	112	240	4
HLD	112	288	2	384
HLD	112	336	6	336
BRK	113	336	1
BRK	113	336	5

T_REC_TAP	480
T_REC_BRK	20
T_REC_XTP	0
T_REC_HLD	77
T_REC_XHO	0
T_REC_STR	35
T_REC_BST	6
T_REC_XST	0
T_REC_TTP	0
T_REC_THO	0
T_REC_SLD	41
T_REC_ALL	659
T_NUM_TAP	515
T_NUM_BRK	26
T_NUM_HLD	77
T_NUM_SLD	41
T_NUM_ALL	659
T_JUDGE_TAP	541
T_JUDGE_HLD	241
T_JUDGE_SLD	41
T_JUDGE_ALL	823
TTM_EACHPAIRS	218
TTM_SCR_TAP	257500
TTM_SCR_BRK	67600
TTM_SCR_HLD	77000
TTM_SCR_SLD	61500
TTM_SCR_ALL	463600
TTM_SCR_S	447200
TTM_SCR_SS	461000
TTM_RAT_ACV	10056

