VERSION	0.00.00	1.03.00
FES_MODE	0
BPM_DEF	190.000	190.000	190.000	190.000
MET_DEF	4	4
RESOLUTION	384
CLK_DEF	384
COMPATIBLE_CODE	MA2

BPM	0	0	190.000
MET	0	0	4	4

HLD	1	0	3	1344
HLD	1	0	4	1344
TAP	5	0	3
TAP	5	0	4
TAP	5	96	3
TAP	5	96	4
TAP	5	192	3
TAP	5	192	4
TAP	6	0	2
TAP	6	0	5
TAP	6	96	2
TAP	6	96	5
TAP	6	192	2
TAP	6	192	5
TAP	7	0	1
TAP	7	0	6
TAP	7	96	1
TAP	7	96	6
TAP	7	192	1
TAP	7	192	6
HLD	8	0	0	96
HLD	8	0	7	96
TAP	8	192	0
TAP	8	192	7
TAP	9	0	7
TAP	9	96	7
TAP	9	192	6
TAP	9	288	6
TAP	10	0	5
TAP	10	96	5
TAP	10	192	4
TAP	10	192	5
TAP	11	0	0
TAP	11	96	0
TAP	11	192	1
TAP	11	288	1
TAP	12	0	2
TAP	12	96	2
TAP	12	192	2
TAP	12	192	3
TAP	13	0	4
TAP	13	96	4
TAP	13	192	5
TAP	13	288	5
TAP	14	0	6
TAP	14	96	6
TAP	14	192	6
TAP	14	192	7
TAP	15	0	2
TAP	15	96	2
TAP	15	192	1
TAP	15	288	1
TAP	16	0	0
TAP	16	96	7
TAP	16	192	0
TAP	16	192	7
HLD	17	0	5	192
TAP	17	192	4
TAP	18	0	3
TAP	18	96	4
TAP	18	192	3
TAP	18	192	4
TAP	19	0	1
TAP	19	96	1
TAP	19	192	0
STR	19	288	0
SI_	19	288	0	96	192	3
HLD	21	0	2	192
TAP	21	192	3
TAP	22	0	4
TAP	22	96	3
TAP	22	192	3
TAP	22	192	4
TAP	23	0	6
TAP	23	96	6
TAP	23	192	7
TAP	23	288	7
HLD	24	0	0	96
HLD	24	0	7	96
TAP	24	192	1
TAP	24	192	6
TAP	25	0	3
TAP	25	96	3
TAP	25	192	2
TAP	25	288	2
TAP	26	0	1
TAP	26	96	1
TAP	26	192	0
TAP	26	192	1
TAP	27	0	5
TAP	27	96	5
TAP	27	192	6
TAP	27	288	6
TAP	28	0	7
TAP	28	96	0
TAP	28	192	0
TAP	28	192	7
HLD	29	0	1	192
TAP	29	192	0
TAP	30	0	7
TAP	30	96	0
TAP	30	192	1
TAP	30	192	6
TAP	31	0	5
TAP	31	96	5
TAP	31	192	4
STR	31	288	4
SI_	31	288	4	96	192	7
HLD	33	0	6	192
TAP	33	192	7
TAP	34	0	0
TAP	34	96	7
TAP	34	192	1
TAP	34	192	6
TAP	35	0	2
TAP	35	96	2
TAP	35	192	3
TAP	35	288	3
TAP	36	0	4
TAP	36	96	3
TAP	36	96	4
TAP	36	192	2
TAP	36	192	5
TAP	37	0	0
TAP	37	0	7
TAP	37	192	1
TAP	37	192	6
TAP	38	0	0
TAP	38	0	7
TAP	38	96	1
TAP	38	192	2
TAP	38	192	3
TAP	39	0	7
TAP	39	96	6
TAP	39	192	4
TAP	39	192	5
TAP	40	0	0
TAP	40	96	1
TAP	40	192	2
TAP	40	192	3
TAP	41	0	4
TAP	41	0	5
TAP	41	192	2
TAP	41	192	3
TAP	42	0	5
TAP	42	96	4
TAP	42	192	2
TAP	42	192	3
TAP	43	0	3
TAP	43	0	4
TAP	43	96	3
TAP	43	96	4
TAP	43	192	2
TAP	43	192	5
TAP	44	0	0
TAP	44	0	7
TAP	44	96	0
TAP	44	96	7
TAP	44	192	1
TAP	44	192	6
TAP	45	0	5
TAP	45	96	5
TAP	45	192	4
TAP	45	192	5
TAP	45	288	3
TAP	45	288	6
TAP	46	0	2
TAP	46	96	2
TAP	46	192	1
TAP	46	192	3
HLD	47	0	5	96
TAP	47	96	4
HLD	47	192	2	96
TAP	47	288	3
STR	48	0	3
SI_	48	0	3	96	144	0
STR	48	0	4
SI_	48	0	4	96	144	7
TAP	49	0	1
TAP	49	96	1
TAP	49	192	0
TAP	49	192	1
TAP	49	288	2
TAP	49	288	7
TAP	50	0	6
TAP	50	96	6
TAP	50	192	5
TAP	50	192	7
HLD	51	0	1	96
TAP	51	96	0
HLD	51	192	6	96
TAP	51	288	7
STR	52	0	0
SI_	52	0	0	96	144	3
STR	52	0	7
SI_	52	0	7	96	144	4
TAP	53	0	3
TAP	53	96	3
TAP	53	192	2
TAP	53	192	4
TAP	53	288	2
TAP	53	288	4
TAP	54	0	3
TAP	54	96	2
TAP	54	96	4
TAP	54	192	1
TAP	54	192	5
TAP	55	0	4
TAP	55	96	4
TAP	55	192	3
TAP	55	192	5
TAP	55	288	3
TAP	55	288	5
TAP	56	0	4
TAP	56	96	3
TAP	56	96	5
TAP	56	192	2
STR	56	192	6
SI_	56	192	6	96	192	3
STR	57	192	1
SI_	57	192	1	96	192	4
TAP	58	192	5
TAP	58	288	5
TAP	59	0	6
TAP	59	96	7
TAP	59	192	0
TAP	59	288	1
HLD	60	0	2	192
HLD	60	0	7	192
TAP	61	0	0
TAP	61	0	6
TAP	61	96	0
TAP	61	96	6
TAP	61	192	1
TAP	61	192	7
TAP	61	288	1
TAP	61	288	7
TAP	62	0	2
TAP	62	96	3
TAP	62	192	4
TAP	62	192	5
TAP	63	0	1
TAP	63	0	7
TAP	63	96	1
TAP	63	96	7
TAP	63	192	0
TAP	63	192	6
TAP	63	288	0
TAP	63	288	6
TAP	64	0	5
TAP	64	96	4
TAP	64	192	3
TAP	64	192	4
TAP	65	0	0
TAP	65	0	6
TAP	65	96	0
TAP	65	96	6
TAP	65	192	1
TAP	65	192	7
TAP	65	288	1
TAP	65	288	7
TAP	66	0	2
TAP	66	96	3
TAP	66	192	4
TAP	66	192	5
TAP	67	0	1
TAP	67	0	7
TAP	67	96	1
TAP	67	96	7
TAP	67	192	0
TAP	67	192	6
TAP	67	288	0
TAP	67	288	6
TAP	68	0	5
TAP	68	96	4
TAP	68	192	3
BRK	68	288	2
BRK	68	288	5
TAP	69	0	4
TAP	69	96	4
TAP	69	192	5
TAP	69	288	5
TAP	70	0	6
TAP	70	96	6
TAP	70	192	5
TAP	70	192	7
TAP	71	0	2
TAP	71	96	2
TAP	71	192	1
TAP	71	288	1
TAP	72	0	0
TAP	72	0	7
TAP	72	96	0
TAP	72	96	7
TAP	72	192	1
TAP	72	192	6
HLD	73	0	2	192
TAP	73	192	3
TAP	74	0	1
TAP	74	96	2
TAP	74	192	3
TAP	74	192	4
HLD	75	0	5	192
TAP	75	192	4
TAP	76	0	6
TAP	76	96	5
TAP	76	192	3
TAP	76	192	4
HLD	77	0	1	192
TAP	77	192	0
TAP	78	0	2
TAP	78	96	1
TAP	78	192	0
TAP	78	192	7
HLD	79	0	6	192
TAP	79	192	7
TAP	80	0	0
TAP	80	0	7
TAP	80	96	0
TAP	80	96	7
TAP	80	192	1
TAP	80	192	6
TAP	81	0	5
TAP	81	96	4
TAP	81	192	3
TAP	81	192	5
TAP	81	288	3
TAP	81	288	5
TAP	82	0	2
TAP	82	96	3
TAP	82	192	1
TAP	82	192	4
HLD	83	0	5	96
TAP	83	96	4
HLD	83	192	2	96
TAP	83	288	3
STR	84	0	3
SCL	84	0	3	96	144	0
STR	84	0	4
SCR	84	0	4	96	144	7
TAP	85	0	1
TAP	85	96	0
TAP	85	192	1
TAP	85	192	7
TAP	85	288	1
TAP	85	288	7
TAP	86	0	6
TAP	86	96	7
TAP	86	192	0
TAP	86	192	5
HLD	87	0	1	96
TAP	87	96	0
HLD	87	192	6	96
TAP	87	288	7
STR	88	0	0
SCR	88	0	0	96	144	3
STR	88	0	7
SCL	88	0	7	96	144	4
TAP	89	0	4
TAP	89	0	5
TAP	89	96	4
TAP	89	96	5
TAP	89	192	3
TAP	89	192	6
TAP	89	288	3
TAP	89	288	6
TAP	90	0	4
TAP	90	0	5
TAP	90	96	3
TAP	90	96	6
TAP	90	192	2
TAP	90	192	7
TAP	91	0	2
TAP	91	0	3
TAP	91	96	2
TAP	91	96	3
TAP	91	192	1
TAP	91	192	4
TAP	91	288	1
TAP	91	288	4
TAP	92	0	2
TAP	92	0	3
TAP	92	96	1
TAP	92	96	4
STR	92	192	0
SLR	92	192	0	96	192	4
TAP	92	192	5
STR	93	192	7
SLL	93	192	7	96	192	3
TAP	94	192	2
TAP	94	288	2
TAP	95	0	1
TAP	95	96	0
TAP	95	192	7
TAP	95	288	6
HLD	96	0	0	192
HLD	96	0	5	192
TAP	97	0	1
TAP	97	0	7
TAP	97	96	1
TAP	97	96	7
TAP	97	192	0
TAP	97	192	6
TAP	97	288	0
TAP	97	288	6
TAP	98	0	5
TAP	98	96	4
TAP	98	192	3
TAP	98	192	5
TAP	99	0	0
TAP	99	0	6
TAP	99	96	0
TAP	99	96	6
TAP	99	192	1
TAP	99	192	7
TAP	99	288	1
TAP	99	288	7
TAP	100	0	2
TAP	100	96	3
TAP	100	192	3
TAP	100	192	4
TAP	101	0	1
TAP	101	0	7
TAP	101	96	1
TAP	101	96	7
TAP	101	192	0
TAP	101	192	6
TAP	101	288	0
TAP	101	288	6
TAP	102	0	5
TAP	102	96	4
TAP	102	192	3
TAP	102	288	2
TAP	102	288	4
TAP	103	0	0
TAP	103	0	6
TAP	103	96	0
TAP	103	96	6
TAP	103	192	1
TAP	103	192	7
TAP	103	288	1
TAP	103	288	7
TAP	104	0	2
TAP	104	0	3
TAP	104	96	4
TAP	104	96	5
TAP	104	192	2
TAP	104	192	3
BRK	104	288	4
BRK	104	288	5
TAP	105	0	3
TAP	105	96	2
TAP	105	192	1
TAP	105	288	0
TAP	106	0	6
TAP	106	0	7
TAP	106	96	6
TAP	106	96	7
TAP	106	192	0
TAP	106	192	5
TAP	107	0	4
TAP	107	96	5
TAP	107	192	6
TAP	107	288	7
TAP	108	0	0
TAP	108	0	1
TAP	108	96	0
TAP	108	96	1
TAP	108	192	2
TAP	108	192	7
TAP	109	0	2
TAP	109	0	3
TAP	109	96	2
TAP	109	96	3
TAP	109	192	0
TAP	109	192	1
TAP	109	288	0
TAP	109	288	1
TAP	110	0	6
TAP	110	0	7
TAP	110	96	6
TAP	110	96	7
TAP	110	192	0
TAP	110	192	5
TAP	111	0	4
TAP	111	0	5
TAP	111	96	4
TAP	111	96	5
TAP	111	192	6
TAP	111	192	7
TAP	111	288	6
TAP	111	288	7
TAP	112	0	0
TAP	112	0	1
TAP	112	96	0
TAP	112	96	1
TAP	112	192	2
TAP	112	192	7
TAP	112	288	2
STR	112	288	7
SI_	112	288	7	96	336	3

T_REC_TAP	441
T_REC_BRK	4
T_REC_XTP	0
T_REC_HLD	26
T_REC_XHO	0
T_REC_STR	15
T_REC_BST	0
T_REC_XST	0
T_REC_TTP	0
T_REC_THO	0
T_REC_SLD	15
T_REC_ALL	501
T_NUM_TAP	456
T_NUM_BRK	4
T_NUM_HLD	26
T_NUM_SLD	15
T_NUM_ALL	501
T_JUDGE_TAP	460
T_JUDGE_HLD	128
T_JUDGE_SLD	15
T_JUDGE_ALL	603
TTM_EACHPAIRS	155
TTM_SCR_TAP	228000
TTM_SCR_BRK	10400
TTM_SCR_HLD	26000
TTM_SCR_SLD	22500
TTM_SCR_ALL	286900
TTM_SCR_S	277950
TTM_SCR_SS	286500
TTM_RAT_ACV	10013

