VERSION	0.00.00	1.03.00
FES_MODE	0
BPM_DEF	190.000	190.000	190.000	190.000
MET_DEF	4	4
RESOLUTION	384
CLK_DEF	384
COMPATIBLE_CODE	MA2

BPM	0	0	190.000
MET	0	0	4	4

TAP	1	96	0
TAP	1	288	0
TAP	2	96	1
TAP	2	288	1
TAP	3	96	2
TAP	3	288	2
TAP	4	96	3
TAP	4	192	3
TAP	4	288	3
TAP	5	96	4
TAP	5	288	4
TAP	6	96	5
TAP	6	288	5
TAP	7	96	6
TAP	7	288	6
TAP	8	96	6
TAP	8	192	6
TAP	9	0	7
TAP	9	96	7
TAP	9	192	7
TAP	10	0	6
TAP	10	96	6
TAP	10	192	6
TAP	11	0	5
TAP	11	96	5
TAP	11	192	5
TAP	12	0	4
TAP	12	96	3
TAP	12	192	4
TAP	13	0	3
TAP	13	96	3
TAP	13	192	3
TAP	14	0	2
TAP	14	96	2
TAP	14	192	2
TAP	15	0	1
TAP	15	96	1
TAP	15	192	1
TAP	16	0	0
TAP	16	96	0
TAP	16	192	0
HLD	17	0	7	192
HLD	18	0	0	192
HLD	19	0	1	192
TAP	20	0	2
TAP	20	96	2
TAP	20	192	2
TAP	20	192	3
HLD	21	0	3	192
HLD	22	0	4	192
HLD	23	0	5	192
TAP	24	0	6
TAP	24	96	6
TAP	24	192	6
TAP	24	192	7
TAP	25	0	7
TAP	25	96	7
TAP	25	192	7
TAP	26	0	6
TAP	26	96	6
TAP	26	192	6
TAP	27	0	5
TAP	27	96	5
TAP	27	192	5
TAP	28	0	4
TAP	28	96	4
TAP	28	192	4
HLD	29	0	3	192
HLD	30	0	2	192
HLD	31	0	1	192
TAP	32	0	0
TAP	32	0	7
TAP	32	96	0
TAP	32	96	7
TAP	32	192	0
TAP	32	192	7
HLD	33	0	7	192
HLD	34	0	6	192
HLD	35	0	5	192
TAP	36	0	3
TAP	36	0	4
TAP	36	96	3
TAP	36	96	4
TAP	36	192	3
TAP	36	192	4
STR	37	0	3
SI_	37	0	3	96	288	0
STR	39	0	4
SI_	39	0	4	96	288	7
STR	41	0	0
SI_	41	0	0	96	288	3
STR	43	0	7
SI_	43	0	7	96	288	4
TAP	45	0	0
TAP	45	96	0
TAP	45	192	0
TAP	46	0	1
TAP	46	96	1
TAP	46	192	0
TAP	46	192	1
TAP	47	0	2
TAP	47	96	2
TAP	47	192	2
TAP	48	0	3
TAP	48	96	3
TAP	48	192	3
TAP	48	192	4
TAP	49	0	4
TAP	49	96	4
TAP	49	192	4
TAP	50	0	5
TAP	50	96	5
TAP	50	192	4
TAP	50	192	5
TAP	51	0	6
TAP	51	96	6
TAP	51	192	6
TAP	52	0	7
TAP	52	96	7
TAP	52	192	0
TAP	52	192	7
TAP	53	0	0
TAP	53	96	0
TAP	53	192	0
TAP	54	0	7
TAP	54	96	7
TAP	54	192	0
TAP	54	192	7
TAP	55	0	6
TAP	55	96	6
TAP	55	192	6
TAP	56	0	5
TAP	56	96	5
TAP	56	192	4
TAP	56	192	5
TAP	57	0	4
TAP	57	96	4
TAP	57	192	4
TAP	58	0	3
TAP	58	96	3
TAP	58	192	3
TAP	58	192	4
TAP	59	0	2
TAP	59	96	2
TAP	59	192	2
TAP	60	0	1
TAP	60	96	1
TAP	60	192	0
TAP	60	192	1
TAP	61	0	3
TAP	61	192	3
TAP	62	0	2
TAP	62	0	4
TAP	62	96	2
TAP	62	96	4
TAP	62	192	2
TAP	62	192	4
TAP	63	0	3
TAP	63	192	3
TAP	64	0	2
TAP	64	0	4
TAP	64	96	2
TAP	64	96	4
TAP	64	192	2
TAP	64	192	4
TAP	65	0	4
TAP	65	192	4
TAP	66	0	3
TAP	66	0	5
TAP	66	96	3
TAP	66	96	5
TAP	66	192	3
TAP	66	192	5
TAP	67	0	4
TAP	67	192	4
TAP	68	0	3
TAP	68	0	5
TAP	68	96	3
TAP	68	96	5
TAP	68	192	3
TAP	68	192	5
TAP	69	0	6
TAP	69	96	6
TAP	69	192	6
TAP	70	0	7
TAP	70	96	7
TAP	70	192	0
TAP	70	192	7
TAP	71	0	0
TAP	71	96	0
TAP	71	192	0
TAP	72	0	1
TAP	72	96	1
TAP	72	192	0
TAP	72	192	1
BRK	73	0	0
TAP	73	192	0
TAP	74	0	0
TAP	74	96	0
TAP	74	192	0
BRK	75	0	1
TAP	75	192	1
TAP	76	0	1
TAP	76	96	1
TAP	76	192	1
BRK	77	0	2
TAP	77	192	2
TAP	78	0	2
TAP	78	96	2
TAP	78	192	2
BRK	79	0	3
TAP	79	192	3
TAP	80	0	3
TAP	80	96	3
TAP	80	192	3
TAP	81	0	4
TAP	81	96	4
TAP	81	192	5
TAP	81	288	5
TAP	82	0	6
TAP	82	96	6
TAP	82	192	6
TAP	82	192	7
TAP	83	0	0
TAP	83	96	0
TAP	83	192	1
TAP	83	288	1
TAP	84	0	2
TAP	84	96	2
TAP	84	192	2
TAP	84	192	3
TAP	85	0	4
TAP	85	96	4
TAP	85	192	3
TAP	85	288	3
TAP	86	0	2
TAP	86	96	2
TAP	86	192	2
TAP	86	192	3
TAP	87	0	1
TAP	87	96	1
TAP	87	192	0
TAP	87	288	0
TAP	88	0	7
TAP	88	96	7
TAP	88	192	0
TAP	88	192	7
TAP	89	0	1
TAP	89	96	1
TAP	89	192	2
TAP	89	288	2
TAP	90	0	3
TAP	90	0	4
TAP	90	96	3
TAP	90	96	4
TAP	90	192	3
TAP	90	192	4
TAP	91	0	5
TAP	91	96	5
TAP	91	192	6
TAP	91	288	6
TAP	92	0	0
TAP	92	0	7
TAP	92	96	0
TAP	92	96	7
TAP	92	192	0
TAP	92	192	7
TAP	93	0	0
TAP	93	0	1
TAP	93	96	0
TAP	93	96	1
TAP	93	192	0
TAP	93	192	1
TAP	94	0	6
TAP	94	0	7
TAP	94	96	6
TAP	94	96	7
TAP	94	192	6
TAP	94	192	7
TAP	95	0	0
TAP	95	96	0
TAP	95	192	1
TAP	95	288	1
TAP	96	0	2
TAP	96	96	2
TAP	96	192	2
TAP	96	192	3
TAP	97	0	0
TAP	97	96	0
TAP	97	192	0
TAP	98	0	1
TAP	98	0	7
TAP	98	96	1
TAP	98	96	7
TAP	98	192	1
TAP	98	192	7
TAP	99	0	0
TAP	99	96	0
TAP	99	192	0
TAP	100	0	1
TAP	100	0	7
TAP	100	96	1
TAP	100	96	7
TAP	100	192	1
TAP	100	192	7
TAP	101	0	7
TAP	101	96	7
TAP	101	192	7
TAP	102	0	0
TAP	102	0	6
TAP	102	96	0
TAP	102	96	6
TAP	102	192	0
TAP	102	192	6
TAP	103	0	7
TAP	103	96	7
TAP	103	192	7
TAP	104	0	0
TAP	104	0	6
TAP	104	96	0
TAP	104	96	6
TAP	104	192	0
TAP	104	192	6
TAP	105	0	5
TAP	105	96	5
TAP	105	192	5
TAP	106	0	6
TAP	106	96	6
TAP	106	192	6
TAP	107	0	7
TAP	107	96	7
TAP	107	192	7
TAP	108	0	0
TAP	108	0	1
TAP	108	96	0
TAP	108	96	1
TAP	108	192	0
TAP	108	192	1
TAP	109	0	1
TAP	109	96	1
TAP	109	192	1
TAP	110	0	2
TAP	110	96	2
TAP	110	192	2
TAP	111	0	3
TAP	111	96	3
TAP	111	192	3
TAP	112	0	3
TAP	112	0	4
TAP	112	96	3
TAP	112	96	4
TAP	112	192	3
TAP	112	192	4
HLD	112	288	3	432
HLD	112	288	4	432

T_REC_TAP	329
T_REC_BRK	4
T_REC_XTP	0
T_REC_HLD	14
T_REC_XHO	0
T_REC_STR	4
T_REC_BST	0
T_REC_XST	0
T_REC_TTP	0
T_REC_THO	0
T_REC_SLD	4
T_REC_ALL	355
T_NUM_TAP	333
T_NUM_BRK	4
T_NUM_HLD	14
T_NUM_SLD	4
T_NUM_ALL	355
T_JUDGE_TAP	337
T_JUDGE_HLD	66
T_JUDGE_SLD	4
T_JUDGE_ALL	407
TTM_EACHPAIRS	66
TTM_SCR_TAP	166500
TTM_SCR_BRK	10400
TTM_SCR_HLD	14000
TTM_SCR_SLD	6000
TTM_SCR_ALL	196900
TTM_SCR_S	190650
TTM_SCR_SS	196500
TTM_RAT_ACV	10020

