VERSION	0.00.00	1.03.00
FES_MODE	0
BPM_DEF	179.000	179.000	179.000	179.000
MET_DEF	4	4
RESOLUTION	384
CLK_DEF	384
COMPATIBLE_CODE	MA2

BPM	0	0	179.000
MET	0	0	4	4

TAP	1	0	3
TAP	1	48	3
TAP	1	96	3
TAP	1	144	3
TAP	1	192	4
TAP	1	240	4
TAP	1	288	4
TAP	1	336	4
TAP	2	0	3
TAP	2	48	3
TAP	2	96	3
TAP	2	144	0
TAP	2	168	0
TAP	2	192	7
TAP	2	224	1
TAP	2	256	6
TAP	2	288	2
TAP	2	320	5
TAP	2	352	3
TAP	3	0	4
TAP	3	48	4
TAP	3	96	4
TAP	3	144	4
TAP	3	192	3
TAP	3	240	3
TAP	3	288	3
TAP	3	336	3
TAP	4	0	4
TAP	4	48	4
TAP	4	96	4
TAP	4	144	7
TAP	4	168	7
TAP	4	192	0
TAP	4	224	6
TAP	4	256	1
TAP	4	288	5
TAP	4	320	2
TAP	4	352	4
TAP	5	0	3
TAP	5	48	3
TAP	5	96	3
TAP	5	144	3
TAP	5	192	4
TAP	5	240	4
TAP	5	288	4
TAP	5	336	4
TAP	6	0	3
TAP	6	48	3
TAP	6	96	3
TAP	6	144	0
TAP	6	168	0
TAP	6	192	7
TAP	6	224	3
TAP	6	256	6
TAP	6	288	2
TAP	6	320	5
TAP	6	352	1
TAP	7	0	4
TAP	7	48	4
TAP	7	96	4
TAP	7	144	4
TAP	7	192	3
TAP	7	240	3
TAP	7	288	3
TAP	7	336	3
TAP	8	0	4
TAP	8	48	4
TAP	8	96	4
TAP	8	144	7
TAP	8	168	7
TAP	8	192	0
TAP	8	224	4
TAP	8	256	1
TAP	8	288	5
TAP	8	320	2
TAP	8	352	6
HLD	9	0	3	96
TAP	9	96	5
HLD	9	144	4	96
TAP	9	240	1
HLD	9	288	3	96
TAP	9	336	7
HLD	10	0	5	96
STR	10	96	0
SCR	10	96	0	96	96	7
HLD	10	144	2	144
HLD	11	0	4	96
TAP	11	96	2
HLD	11	144	3	96
TAP	11	240	6
HLD	11	288	4	96
TAP	11	336	0
HLD	12	0	2	96
STR	12	96	7
SCL	12	96	7	96	96	0
HLD	12	144	5	144
HLD	13	0	2	96
TAP	13	96	0
HLD	13	144	6	96
TAP	13	240	7
HLD	13	288	1	96
TAP	13	336	7
HLD	14	0	5	96
STR	14	96	0
SCL	14	96	0	96	96	1
HLD	14	144	2	144
HLD	15	0	5	96
TAP	15	96	7
HLD	15	144	1	96
TAP	15	240	0
HLD	15	288	6	96
TAP	15	336	0
HLD	16	0	2	96
STR	16	96	7
SCR	16	96	7	96	96	6
HLD	16	144	5	144
HLD	17	0	0	96
TAP	17	48	7
TAP	17	96	6
HLD	17	144	5	96
TAP	17	192	0
TAP	17	240	1
HLD	17	288	2	96
TAP	17	336	7
HLD	18	0	6	96
TAP	18	48	7
TAP	18	96	0
HLD	18	144	1	144
TAP	18	192	6
TAP	18	204	7
TAP	18	216	0
TAP	18	240	2
TAP	18	252	3
TAP	18	264	4
TAP	18	276	5
TAP	18	288	6
HLD	19	0	7	96
TAP	19	48	0
TAP	19	96	1
HLD	19	144	2	96
TAP	19	192	7
TAP	19	240	6
HLD	19	288	5	96
TAP	19	336	0
HLD	20	0	1	96
TAP	20	48	0
TAP	20	96	7
HLD	20	144	6	144
TAP	20	192	1
TAP	20	204	0
TAP	20	216	7
TAP	20	240	5
TAP	20	252	4
TAP	20	264	3
TAP	20	276	2
TAP	20	288	1
HLD	21	0	2	96
HLD	21	0	7	48
HLD	21	96	6	144
HLD	21	144	7	48
HLD	21	240	1	144
HLD	21	288	0	48
HLD	22	0	5	96
HLD	22	48	0	96
HLD	22	144	7	144
TAP	22	192	1
TAP	22	204	0
TAP	22	228	6
TAP	22	240	5
TAP	22	252	4
TAP	22	264	3
TAP	22	276	2
TAP	22	288	1
HLD	23	0	0	48
HLD	23	0	5	96
HLD	23	96	1	144
HLD	23	144	0	48
HLD	23	240	6	144
HLD	23	288	7	48
HLD	24	0	2	96
HLD	24	48	7	96
HLD	24	144	0	144
TAP	24	192	6
TAP	24	204	7
TAP	24	228	1
TAP	24	240	2
TAP	24	252	3
TAP	24	264	4
TAP	24	276	5
TAP	24	288	6
TAP	25	0	1
TAP	25	48	4
TAP	25	96	3
TAP	25	96	6
TAP	25	144	4
TAP	25	168	2
TAP	25	192	3
TAP	25	240	1
TAP	25	240	4
TAP	25	288	3
TAP	25	312	5
TAP	25	336	4
TAP	26	0	3
TAP	26	0	6
TAP	26	48	4
TAP	26	72	2
STR	26	96	3
SCR	26	96	3	96	24	6
STR	26	144	3
SCL	26	144	3	96	24	1
STR	26	192	3
SUR	26	192	3	96	24	7
STR	26	240	3
SI_	26	240	3	96	24	0
TAP	27	0	6
TAP	27	48	2
TAP	27	72	3
TAP	27	96	2
TAP	27	120	3
TAP	27	144	2
TAP	27	192	5
TAP	27	216	4
TAP	27	240	5
TAP	27	264	4
TAP	27	288	5
TAP	27	336	1
TAP	27	348	2
TAP	27	360	3
TAP	27	372	4
TAP	28	0	7
TAP	28	48	5
TAP	28	96	0
TAP	28	144	2
TAP	28	192	7
TAP	28	216	7
TAP	28	240	7
TAP	28	264	7
TAP	28	288	0
TAP	28	304	1
TAP	28	320	2
TAP	28	336	7
TAP	28	352	6
TAP	28	368	5
TAP	29	0	1
TAP	29	48	4
TAP	29	96	2
TAP	29	120	3
TAP	29	144	2
TAP	29	192	3
TAP	29	192	6
TAP	29	240	5
TAP	29	264	4
TAP	29	288	5
TAP	29	336	1
TAP	29	336	4
TAP	30	0	2
TAP	30	24	3
TAP	30	48	2
TAP	30	96	3
TAP	30	96	6
STR	30	144	5
SI_	30	144	5	96	24	1
TAP	30	168	5
HLD	30	192	5	48
STR	30	288	2
SI_	30	288	2	96	24	6
TAP	30	312	2
HLD	30	336	2	48
STR	31	48	5
SI_	31	48	5	96	24	1
TAP	31	72	5
HLD	31	96	5	48
STR	31	192	2
SI_	31	192	2	96	24	6
TAP	31	216	2
HLD	31	240	2	48
STR	31	336	5
SI_	31	336	5	96	24	1
TAP	31	360	5
HLD	32	0	5	48
STR	32	96	2
SI_	32	96	2	96	24	6
TAP	32	120	2
HLD	32	144	2	48
STR	32	240	5
SI_	32	240	5	96	24	1
TAP	32	264	5
HLD	32	288	5	48
TAP	33	0	6
TAP	33	48	3
TAP	33	96	1
TAP	33	96	4
TAP	33	144	3
TAP	33	168	5
TAP	33	192	4
TAP	33	240	3
TAP	33	240	6
TAP	33	288	4
TAP	33	312	2
TAP	33	336	3
TAP	34	0	1
TAP	34	0	4
TAP	34	48	3
TAP	34	72	5
STR	34	96	4
SCL	34	96	4	96	24	1
STR	34	144	4
SCR	34	144	4	96	24	6
STR	34	192	4
SUL	34	192	4	96	24	0
STR	34	240	4
SI_	34	240	4	96	24	7
TAP	35	0	1
TAP	35	48	5
TAP	35	72	4
TAP	35	96	5
TAP	35	120	4
TAP	35	144	5
TAP	35	192	2
TAP	35	216	3
TAP	35	240	2
TAP	35	264	3
TAP	35	288	2
TAP	35	336	6
TAP	35	348	5
TAP	35	360	4
TAP	35	372	3
TAP	36	0	0
TAP	36	48	2
TAP	36	96	7
TAP	36	144	5
TAP	36	192	0
TAP	36	216	0
TAP	36	240	0
TAP	36	264	0
TAP	36	288	7
TAP	36	304	6
TAP	36	320	5
TAP	36	336	0
TAP	36	352	1
TAP	36	368	2
TAP	37	0	6
TAP	37	48	3
TAP	37	96	5
TAP	37	120	4
TAP	37	144	5
TAP	37	192	1
TAP	37	192	4
TAP	37	240	2
TAP	37	264	3
TAP	37	288	2
TAP	37	336	3
TAP	37	336	6
TAP	38	0	5
TAP	38	24	4
TAP	38	48	5
TAP	38	96	1
TAP	38	96	4
STR	38	144	7
SI_	38	144	7	96	24	3
TAP	38	168	7
HLD	38	192	7	48
STR	38	288	0
SI_	38	288	0	96	24	4
TAP	38	312	0
HLD	38	336	0	48
STR	39	48	6
SI_	39	48	6	96	24	2
TAP	39	72	6
HLD	39	96	6	48
STR	39	192	1
SI_	39	192	1	96	24	5
TAP	39	216	1
HLD	39	240	1	48
STR	39	336	7
SI_	39	336	7	96	24	3
TAP	39	360	7
HLD	40	0	7	48
STR	40	96	0
SF_	40	96	0	96	24	4
TAP	40	120	0
HLD	40	144	0	48
TAP	40	288	2
TAP	40	288	6
TAP	40	336	4
TAP	41	0	3
TAP	41	48	3
TAP	41	72	5
TAP	41	120	5
TAP	41	192	2
TAP	41	240	2
TAP	41	264	4
TAP	41	312	4
TAP	42	0	3
TAP	42	48	3
TAP	42	72	5
TAP	42	120	5
TAP	42	192	2
TAP	42	240	2
TAP	42	264	4
TAP	42	288	3
TAP	42	336	3
TAP	42	360	5
TAP	43	0	2
TAP	43	48	2
TAP	43	72	3
TAP	43	120	3
TAP	43	192	5
TAP	43	240	5
TAP	43	264	4
TAP	43	312	4
TAP	44	0	2
TAP	44	48	2
TAP	44	72	3
TAP	44	120	3
TAP	44	192	5
TAP	44	240	5
TAP	44	264	3
TAP	44	288	4
TAP	44	336	4
TAP	44	360	2
TAP	45	0	5
TAP	45	48	5
TAP	45	72	3
TAP	45	120	3
TAP	45	144	4
TAP	45	192	2
TAP	45	240	2
TAP	45	264	4
TAP	45	312	4
TAP	45	336	3
TAP	46	0	5
TAP	46	48	5
TAP	46	72	3
TAP	46	120	3
TAP	46	144	4
TAP	46	192	2
TAP	46	240	2
TAP	46	264	4
TAP	46	288	3
TAP	46	336	3
TAP	46	360	5
TAP	47	0	2
TAP	47	48	2
TAP	47	72	5
TAP	47	120	5
TAP	47	144	4
TAP	47	192	5
TAP	47	240	5
TAP	47	264	2
TAP	47	312	2
TAP	47	336	3
TAP	48	0	2
TAP	48	48	4
TAP	48	72	3
TAP	48	72	4
TAP	48	120	2
TAP	48	144	2
TAP	48	144	3
TAP	48	192	5
TAP	48	216	4
TAP	48	216	5
TAP	48	264	3
BRK	48	288	3
BRK	48	288	4
TAP	49	0	2
TAP	49	24	4
TAP	49	48	2
TAP	49	72	4
TAP	49	120	3
TAP	49	168	3
TAP	49	192	5
TAP	49	216	3
TAP	49	240	5
TAP	49	264	3
TAP	49	312	4
TAP	49	360	4
TAP	50	0	2
TAP	50	24	4
TAP	50	48	2
TAP	50	72	4
TAP	50	120	3
TAP	50	168	3
TAP	50	192	5
TAP	50	216	3
TAP	50	240	4
TAP	50	264	2
TAP	50	288	5
TAP	50	312	3
TAP	50	336	4
TAP	50	360	2
TAP	51	0	4
TAP	51	24	3
TAP	51	48	4
TAP	51	72	3
TAP	51	120	5
TAP	51	168	5
TAP	51	192	3
TAP	51	216	4
TAP	51	240	3
TAP	51	264	4
TAP	51	312	2
TAP	51	360	2
TAP	52	0	4
TAP	52	24	3
TAP	52	48	4
TAP	52	72	3
TAP	52	120	5
TAP	52	168	5
TAP	52	192	3
TAP	52	216	4
TAP	52	240	3
TAP	52	264	4
TAP	52	288	2
TAP	52	296	1
TAP	52	304	0
TAP	52	312	7
TAP	53	0	5
TAP	53	24	4
TAP	53	48	5
TAP	53	72	4
TAP	53	96	5
TAP	53	120	2
TAP	53	144	5
TAP	53	168	2
TAP	53	192	3
TAP	53	216	2
TAP	53	240	3
TAP	53	264	2
TAP	53	288	5
TAP	53	312	2
TAP	53	336	5
TAP	53	360	2
TAP	54	0	5
TAP	54	24	3
TAP	54	48	5
TAP	54	72	3
TAP	54	96	4
TAP	54	120	2
TAP	54	144	4
TAP	54	168	2
TAP	54	192	5
TAP	54	216	3
TAP	54	240	4
TAP	54	264	2
TAP	54	288	5
TAP	54	312	3
TAP	54	336	4
TAP	54	360	2
TAP	55	0	5
TAP	55	24	4
TAP	55	48	5
TAP	55	72	3
TAP	55	96	4
TAP	55	120	2
TAP	55	144	3
TAP	55	168	2
TAP	55	192	5
TAP	55	216	4
TAP	55	240	5
TAP	55	264	3
TAP	55	288	4
TAP	55	312	2
TAP	55	336	3
TAP	55	360	2
TAP	56	0	5
TAP	56	24	4
TAP	56	48	5
TAP	56	72	3
TAP	56	96	4
TAP	56	120	2
TAP	56	144	3
TAP	56	168	2
TAP	56	192	5
TAP	56	216	3
TAP	56	240	4
TAP	56	264	2
TAP	56	288	5
TAP	56	300	6
TAP	56	312	7
TAP	56	324	0
TAP	56	336	1
TAP	56	348	2
TAP	56	360	3
TAP	56	372	4
TAP	57	0	2
HLD	57	0	5	1152
TAP	57	12	1
TAP	57	24	0
TAP	57	36	7
TAP	57	48	6
TAP	57	72	4
TAP	57	84	3
TAP	57	96	2
TAP	57	108	1
TAP	57	120	0
TAP	57	132	7
TAP	57	144	6
TAP	57	168	4
TAP	57	180	3
TAP	57	192	2
TAP	57	208	1
TAP	57	224	0
TAP	57	240	7
TAP	57	256	6
TAP	57	288	4
TAP	57	304	3
TAP	57	320	2
TAP	57	336	1
TAP	57	352	0
TAP	57	368	7
TAP	58	0	6
TAP	58	48	4
TAP	58	72	3
TAP	58	96	2
TAP	58	120	1
TAP	58	144	0
TAP	58	168	7
TAP	58	192	6
TAP	58	256	4
TAP	58	288	3
TAP	58	320	2
TAP	58	352	1
TAP	59	0	0
TAP	59	48	7
TAP	59	96	6
TAP	59	192	4
TAP	59	256	3
TAP	59	320	2
TAP	60	0	1
TAP	61	0	2
TAP	61	0	4
TAP	61	48	2
TAP	61	96	2
TAP	61	144	2
TAP	61	144	5
TAP	61	192	5
TAP	61	240	5
TAP	61	288	3
TAP	61	288	5
TAP	61	336	3
TAP	62	0	3
TAP	62	0	6
TAP	62	48	6
STR	62	96	6
SI_	62	96	6	96	48	2
STR	62	144	1
SSR	62	144	1	96	48	5
TAP	62	144	6
TAP	63	0	3
TAP	63	0	5
TAP	63	48	5
TAP	63	96	5
TAP	63	144	2
TAP	63	144	5
TAP	63	192	2
TAP	63	240	2
TAP	63	288	2
TAP	63	288	4
TAP	63	336	4
TAP	64	0	1
TAP	64	0	4
TAP	64	48	1
STR	64	96	1
SI_	64	96	1	96	48	5
TAP	64	144	1
STR	64	144	6
SSL	64	144	6	96	48	2
TAP	65	0	3
TAP	65	0	6
TAP	65	48	3
TAP	65	96	3
TAP	65	144	3
TAP	65	144	5
TAP	65	192	5
TAP	65	240	5
TAP	65	288	2
TAP	65	288	5
TAP	65	336	2
TAP	66	0	2
TAP	66	0	4
TAP	66	48	4
STR	66	96	4
SI_	66	96	4	96	48	0
STR	66	144	1
SSL	66	144	1	96	48	5
TAP	66	144	4
TAP	67	0	1
TAP	67	0	4
TAP	67	48	4
TAP	67	96	4
TAP	67	144	2
TAP	67	144	4
TAP	67	192	2
TAP	67	240	2
TAP	67	288	2
TAP	67	288	5
TAP	67	336	5
TAP	68	0	3
TAP	68	0	5
TAP	68	48	3
STR	68	96	3
SI_	68	96	3	96	48	7
TAP	68	144	3
STR	68	144	6
SSR	68	144	6	96	48	2
HLD	69	0	3	96
TAP	69	48	5
TAP	69	96	2
HLD	69	144	4	96
TAP	69	192	2
TAP	69	240	5
HLD	69	288	3	96
TAP	69	336	5
HLD	70	0	4	96
TAP	70	48	2
STR	70	96	5
SCR	70	96	5	96	96	2
HLD	70	144	3	144
HLD	71	0	4	96
TAP	71	48	2
TAP	71	96	5
HLD	71	144	3	96
TAP	71	192	5
TAP	71	240	2
HLD	71	288	4	96
TAP	71	336	2
HLD	72	0	3	96
TAP	72	48	5
STR	72	96	2
SI_	72	96	2	96	12	5
HLD	72	144	4	48
BRK	72	192	2

T_REC_TAP	588
T_REC_BRK	3
T_REC_XTP	0
T_REC_HLD	72
T_REC_XHO	0
T_REC_STR	35
T_REC_BST	0
T_REC_XST	0
T_REC_TTP	0
T_REC_THO	0
T_REC_SLD	35
T_REC_ALL	733
T_NUM_TAP	623
T_NUM_BRK	3
T_NUM_HLD	72
T_NUM_SLD	35
T_NUM_ALL	733
T_JUDGE_TAP	626
T_JUDGE_HLD	159
T_JUDGE_SLD	35
T_JUDGE_ALL	820
TTM_EACHPAIRS	40
TTM_SCR_TAP	311500
TTM_SCR_BRK	7800
TTM_SCR_HLD	72000
TTM_SCR_SLD	52500
TTM_SCR_ALL	443800
TTM_SCR_S	430200
TTM_SCR_SS	443500
TTM_RAT_ACV	10006

