VERSION	0.00.00	1.03.00
FES_MODE	0
BPM_DEF	179.000	179.000	179.000	179.000
MET_DEF	4	4
RESOLUTION	384
CLK_DEF	384
COMPATIBLE_CODE	MA2

BPM	0	0	179.000
MET	0	0	4	4

HLD	1	0	1	768
HLD	2	144	3	192
HLD	3	0	3	768
HLD	4	144	4	192
HLD	5	0	4	768
HLD	6	144	6	192
HLD	7	0	6	768
HLD	8	144	4	192
HLD	9	0	4	768
TAP	9	144	5
TAP	9	288	5
TAP	10	0	5
HLD	10	144	5	192
HLD	11	0	5	768
TAP	11	144	4
TAP	11	288	4
TAP	12	0	4
HLD	12	144	4	192
HLD	13	0	4	768
TAP	13	144	3
TAP	13	288	3
TAP	14	0	3
HLD	14	144	3	192
HLD	15	0	3	768
TAP	15	144	2
TAP	15	288	2
TAP	16	0	2
HLD	16	144	2	192
HLD	17	0	2	144
TAP	17	144	3
HLD	17	192	2	144
HLD	17	288	3	96
HLD	18	0	2	144
HLD	18	144	3	192
HLD	18	192	2	192
HLD	19	0	4	144
TAP	19	144	3
HLD	19	192	4	144
HLD	19	288	3	96
HLD	20	0	4	144
HLD	20	144	3	240
HLD	20	192	4	144
HLD	21	0	5	144
TAP	21	144	4
HLD	21	192	5	144
HLD	21	288	4	96
HLD	22	0	5	144
HLD	22	144	4	192
HLD	22	192	5	192
HLD	23	0	3	144
TAP	23	144	4
HLD	23	192	3	144
HLD	23	288	4	96
HLD	24	0	3	144
HLD	24	144	4	240
HLD	24	192	3	144
TAP	25	0	2
TAP	25	48	3
TAP	25	96	4
TAP	25	144	5
TAP	25	192	5
TAP	25	240	4
TAP	25	288	3
TAP	25	336	2
TAP	26	0	2
TAP	26	48	3
TAP	26	96	4
TAP	26	144	5
TAP	26	192	6
TAP	26	240	6
TAP	26	288	6
TAP	26	336	6
TAP	27	0	2
TAP	27	48	5
TAP	27	96	5
TAP	27	144	5
TAP	27	192	3
TAP	27	240	4
TAP	27	288	4
TAP	27	336	4
TAP	28	0	2
TAP	28	48	3
TAP	28	96	2
TAP	28	144	3
TAP	28	192	1
TAP	28	240	1
TAP	28	288	1
TAP	28	336	1
TAP	29	0	2
TAP	29	48	3
TAP	29	96	4
TAP	29	144	5
TAP	29	192	5
TAP	29	240	4
TAP	29	288	3
TAP	29	336	2
TAP	30	0	1
HLD	30	48	3	96
TAP	30	144	6
HLD	30	192	4	96
TAP	30	288	6
HLD	30	336	4	96
TAP	31	48	6
HLD	31	96	4	96
TAP	31	192	6
HLD	31	240	4	96
TAP	31	336	6
HLD	32	0	4	96
TAP	32	96	6
HLD	32	144	4	96
TAP	32	240	6
HLD	32	288	4	96
TAP	33	0	2
TAP	33	48	3
TAP	33	96	4
TAP	33	144	5
TAP	33	192	5
TAP	33	240	4
TAP	33	288	3
TAP	33	336	2
TAP	34	0	2
TAP	34	48	3
TAP	34	96	4
TAP	34	144	5
TAP	34	192	6
TAP	34	240	6
TAP	34	288	6
TAP	34	336	6
TAP	35	0	2
TAP	35	48	5
TAP	35	96	5
TAP	35	144	5
TAP	35	192	3
TAP	35	240	4
TAP	35	288	4
TAP	35	336	4
TAP	36	0	2
TAP	36	48	3
TAP	36	96	2
TAP	36	144	3
TAP	36	192	1
TAP	36	240	1
TAP	36	288	1
TAP	36	336	1
TAP	37	0	2
TAP	37	48	3
TAP	37	96	4
TAP	37	144	5
TAP	37	192	5
TAP	37	240	4
TAP	37	288	3
TAP	37	336	2
TAP	38	0	1
HLD	38	48	3	96
TAP	38	144	6
HLD	38	192	4	96
TAP	38	288	6
HLD	38	336	4	96
TAP	39	48	6
HLD	39	96	4	96
TAP	39	192	6
HLD	39	240	4	96
TAP	39	336	6
HLD	40	0	4	96
TAP	40	96	6
HLD	40	144	4	144
TAP	40	288	3
TAP	41	0	2
TAP	41	48	3
TAP	41	72	2
HLD	41	120	3	72
TAP	41	192	2
TAP	41	240	3
TAP	41	264	2
HLD	41	312	3	72
TAP	42	0	2
TAP	42	48	3
TAP	42	72	2
HLD	42	120	3	72
TAP	42	192	2
TAP	42	240	3
TAP	42	264	2
TAP	42	312	5
TAP	42	336	4
TAP	42	360	5
TAP	43	0	2
TAP	43	48	3
TAP	43	72	2
HLD	43	120	3	72
TAP	43	192	2
TAP	43	240	3
TAP	43	264	2
HLD	43	312	3	72
TAP	44	0	2
TAP	44	48	3
TAP	44	72	2
HLD	44	120	3	72
TAP	44	192	2
TAP	44	240	3
TAP	44	264	2
TAP	44	312	5
TAP	44	336	4
TAP	44	360	5
TAP	45	0	1
TAP	45	48	3
TAP	45	72	2
TAP	45	120	5
TAP	45	144	4
TAP	45	192	1
TAP	45	240	3
TAP	45	264	2
TAP	45	312	5
TAP	45	336	4
TAP	46	0	1
TAP	46	48	3
TAP	46	72	2
TAP	46	120	5
TAP	46	144	4
TAP	46	192	1
TAP	46	240	3
TAP	46	264	2
TAP	46	312	5
TAP	46	336	4
TAP	47	0	1
TAP	47	48	3
TAP	47	72	2
TAP	47	120	5
TAP	47	144	4
TAP	47	168	5
TAP	47	192	1
TAP	47	240	3
TAP	47	264	2
TAP	47	312	5
TAP	47	336	4
TAP	47	360	5
TAP	48	0	2
TAP	48	24	3
TAP	48	48	2
TAP	48	72	5
TAP	48	96	4
TAP	48	120	5
TAP	48	144	2
TAP	48	168	3
TAP	48	192	2
TAP	48	216	5
TAP	48	240	4
TAP	48	264	5
TAP	48	288	1
TAP	49	0	0
TAP	49	48	7
TAP	49	72	0
TAP	49	120	0
TAP	49	168	7
TAP	49	192	0
TAP	49	240	7
TAP	49	264	0
TAP	49	312	0
TAP	49	360	7
TAP	50	0	0
TAP	50	48	7
TAP	50	72	0
TAP	50	120	0
TAP	50	168	7
TAP	50	192	0
TAP	50	240	0
TAP	50	288	0
TAP	50	336	0
TAP	51	0	0
TAP	51	48	7
TAP	51	72	0
TAP	51	120	0
TAP	51	168	7
TAP	51	192	0
TAP	51	240	7
TAP	51	264	0
TAP	51	312	0
TAP	51	360	7
TAP	52	0	0
TAP	52	48	7
TAP	52	72	0
TAP	52	120	0
TAP	52	168	7
TAP	52	192	0
TAP	52	240	0
TAP	52	288	1
TAP	52	336	0
TAP	53	0	0
TAP	53	48	7
TAP	53	72	0
TAP	53	120	0
TAP	53	168	7
TAP	53	192	0
TAP	53	240	7
TAP	53	264	0
TAP	53	312	0
TAP	53	360	7
TAP	54	0	0
TAP	54	48	7
TAP	54	72	0
TAP	54	120	0
TAP	54	168	7
TAP	54	192	0
TAP	54	240	0
TAP	54	288	0
TAP	54	336	0
TAP	55	0	0
TAP	55	48	7
TAP	55	72	0
TAP	55	120	0
TAP	55	168	7
TAP	55	192	0
TAP	55	240	7
TAP	55	264	0
TAP	55	312	0
TAP	55	360	7
TAP	56	0	0
TAP	56	48	7
TAP	56	72	0
TAP	56	120	0
TAP	56	168	7
TAP	56	192	0
TAP	56	240	0
STR	56	288	1
SCL	56	288	1	96	3072	6
BRK	57	0	6
HLD	65	0	1	768
TAP	65	144	3
TAP	65	288	3
TAP	66	0	3
HLD	66	144	3	192
HLD	67	0	3	768
TAP	67	144	4
TAP	67	288	4
TAP	68	0	4
HLD	68	144	4	192
HLD	69	0	4	768
TAP	69	144	6
TAP	69	288	6
TAP	70	0	6
HLD	70	144	6	192
HLD	71	0	6	528
TAP	71	144	1
TAP	71	288	1
HLD	72	0	1	144
TAP	72	192	3
TAP	72	192	4

T_REC_TAP	274
T_REC_BRK	1
T_REC_XTP	0
T_REC_HLD	69
T_REC_XHO	0
T_REC_STR	1
T_REC_BST	0
T_REC_XST	0
T_REC_TTP	0
T_REC_THO	0
T_REC_SLD	1
T_REC_ALL	346
T_NUM_TAP	275
T_NUM_BRK	1
T_NUM_HLD	69
T_NUM_SLD	1
T_NUM_ALL	346
T_JUDGE_TAP	276
T_JUDGE_HLD	353
T_JUDGE_SLD	1
T_JUDGE_ALL	630
TTM_EACHPAIRS	1
TTM_SCR_TAP	137500
TTM_SCR_BRK	2600
TTM_SCR_HLD	69000
TTM_SCR_SLD	1500
TTM_SCR_ALL	210600
TTM_SCR_S	204200
TTM_SCR_SS	210500
TTM_RAT_ACV	10004

