VERSION	0.00.00	1.03.00
FES_MODE	0
BPM_DEF	179.000	179.000	179.000	179.000
MET_DEF	4	4
RESOLUTION	384
CLK_DEF	384
COMPATIBLE_CODE	MA2

BPM	0	0	179.000
MET	0	0	4	4

STR	1	0	3
SUL	1	0	3	96	528	0
STR	3	0	7
SUL	3	0	7	96	528	4
STR	5	0	2
SUR	5	0	2	96	576	5
STR	7	0	6
SUR	7	0	6	96	576	1
HLD	9	0	2	192
HLD	9	192	3	192
TAP	10	0	2
TAP	10	192	1
TAP	10	192	4
HLD	11	0	5	192
HLD	11	192	4	192
TAP	12	0	5
TAP	12	192	3
TAP	12	192	6
HLD	13	0	2	192
HLD	13	192	3	192
TAP	14	0	2
TAP	14	192	1
TAP	14	192	4
HLD	15	0	4	192
HLD	15	192	3	192
TAP	16	0	4
TAP	16	192	2
TAP	16	192	5
TAP	17	0	6
HLD	17	0	7	192
HLD	17	192	5	192
HLD	18	0	6	192
TAP	18	192	7
HLD	19	0	0	192
TAP	19	0	1
HLD	19	192	2	192
HLD	20	0	1	192
TAP	20	192	0
TAP	21	0	6
HLD	21	0	7	192
HLD	21	192	5	192
HLD	22	0	6	192
TAP	22	192	7
TAP	23	0	0
HLD	23	0	1	192
HLD	23	192	7	192
HLD	24	0	0	192
TAP	24	192	6
TAP	25	0	2
TAP	25	0	4
TAP	25	96	3
TAP	25	192	4
TAP	25	192	6
TAP	25	288	5
TAP	26	0	2
TAP	26	0	4
TAP	26	96	3
TAP	26	144	3
TAP	26	192	3
TAP	26	240	3
TAP	26	288	3
TAP	27	0	4
TAP	27	48	4
TAP	27	96	4
TAP	27	192	3
TAP	27	240	3
TAP	27	288	3
TAP	28	0	5
TAP	28	48	5
TAP	28	96	4
TAP	28	96	5
TAP	28	192	2
TAP	28	240	2
TAP	28	288	2
TAP	28	288	3
TAP	29	0	4
TAP	29	0	6
TAP	29	96	5
TAP	29	192	2
TAP	29	192	4
TAP	29	288	3
TAP	30	0	4
TAP	30	0	6
TAP	30	96	5
HLD	30	192	3	96
TAP	30	192	4
HLD	30	288	4	96
HLD	31	0	2	96
HLD	31	96	5	96
HLD	31	192	1	96
HLD	31	288	6	96
HLD	32	0	0	96
HLD	32	96	7	96
TAP	32	192	0
TAP	32	288	1
TAP	32	288	6
TAP	33	0	7
TAP	33	96	0
TAP	33	96	6
TAP	33	192	1
TAP	33	288	0
TAP	33	288	2
TAP	34	0	7
TAP	34	96	0
TAP	34	144	0
TAP	34	192	0
TAP	34	240	0
TAP	34	288	0
TAP	34	288	7
TAP	35	0	6
TAP	35	48	6
TAP	35	96	6
TAP	35	96	7
TAP	35	192	1
TAP	35	240	1
TAP	35	288	0
TAP	35	288	1
TAP	36	0	6
TAP	36	0	7
TAP	36	48	6
TAP	36	48	7
TAP	36	96	6
TAP	36	96	7
TAP	36	192	0
TAP	36	192	1
TAP	36	240	0
TAP	36	240	1
TAP	36	288	0
TAP	36	288	1
TAP	37	0	7
TAP	37	96	0
TAP	37	96	6
TAP	37	192	1
TAP	37	288	0
TAP	37	288	2
TAP	38	0	7
TAP	38	96	0
TAP	38	96	6
HLD	38	192	1	96
HLD	38	288	7	96
HLD	39	0	2	96
HLD	39	96	6	96
HLD	39	192	3	96
HLD	39	288	5	96
HLD	40	0	4	96
TAP	40	96	5
TAP	40	192	4
TAP	40	192	5
TAP	41	0	2
HLD	41	96	3	96
TAP	41	192	5
HLD	41	288	4	96
TAP	42	0	2
HLD	42	96	3	96
TAP	42	192	4
TAP	42	288	5
TAP	43	0	6
HLD	43	96	7	96
TAP	43	192	1
HLD	43	288	0	96
TAP	44	0	6
HLD	44	96	7	96
TAP	44	192	0
TAP	44	288	1
TAP	45	0	2
HLD	45	96	3	96
TAP	45	192	5
HLD	45	288	4	96
TAP	46	0	2
HLD	46	96	3	96
TAP	46	192	4
TAP	46	288	2
TAP	47	0	1
HLD	47	96	0	96
TAP	47	192	6
HLD	47	288	7	96
TAP	48	0	0
TAP	48	96	7
TAP	48	192	0
BRK	48	288	1
BRK	48	288	6
TAP	49	0	0
TAP	49	96	1
TAP	49	192	2
TAP	49	288	3
TAP	50	0	2
TAP	50	96	2
TAP	50	96	3
TAP	50	192	4
TAP	50	192	5
TAP	50	240	4
TAP	50	240	5
TAP	50	288	4
TAP	50	288	5
TAP	51	0	3
TAP	51	96	2
TAP	51	192	1
TAP	51	288	0
TAP	52	0	1
TAP	52	96	0
TAP	52	96	1
TAP	52	192	6
TAP	52	192	7
TAP	52	240	6
TAP	52	240	7
BRK	52	288	6
BRK	52	288	7
TAP	53	0	0
TAP	53	96	1
TAP	53	192	0
TAP	53	192	2
TAP	53	288	3
TAP	54	0	2
TAP	54	96	1
TAP	54	96	3
TAP	54	192	4
TAP	54	192	7
TAP	54	240	4
TAP	54	240	7
TAP	54	288	4
TAP	54	288	7
TAP	55	0	3
TAP	55	96	2
TAP	55	192	1
TAP	55	192	3
TAP	55	288	0
TAP	56	0	1
TAP	56	96	0
TAP	56	96	2
TAP	56	192	4
TAP	56	192	7
TAP	56	240	4
TAP	56	240	7
TAP	56	288	4
TAP	56	288	7
BRK	57	0	1
BRK	57	0	6
TAP	57	192	4
HLD	57	192	5	192
HLD	58	0	7	192
TAP	58	144	0
TAP	58	192	0
TAP	59	0	1
HLD	59	0	3	192
HLD	59	192	4	192
HLD	60	0	6	192
TAP	60	144	5
TAP	60	192	5
HLD	61	0	0	192
TAP	61	0	2
HLD	61	192	7	192
HLD	62	0	5	192
TAP	62	144	6
TAP	62	192	6
HLD	63	0	0	192
TAP	63	0	1
HLD	63	192	7	192
HLD	64	0	6	192
TAP	64	144	7
TAP	64	192	7
HLD	65	0	4	192
TAP	65	0	5
HLD	65	192	2	192
HLD	66	0	1	192
TAP	66	144	7
TAP	66	192	7
TAP	67	0	4
HLD	67	0	5	192
HLD	67	192	7	192
HLD	68	0	6	192
TAP	68	144	5
TAP	68	192	5
HLD	69	0	0	192
TAP	69	0	3
HLD	69	192	1	192
HLD	70	0	3	192
TAP	70	144	4
TAP	70	192	4
HLD	71	0	0	192
TAP	71	0	5
HLD	71	192	3	384
HLD	72	0	4	192

T_REC_TAP	199
T_REC_BRK	6
T_REC_XTP	0
T_REC_HLD	69
T_REC_XHO	0
T_REC_STR	4
T_REC_BST	0
T_REC_XST	0
T_REC_TTP	0
T_REC_THO	0
T_REC_SLD	4
T_REC_ALL	282
T_NUM_TAP	203
T_NUM_BRK	6
T_NUM_HLD	69
T_NUM_SLD	4
T_NUM_ALL	282
T_JUDGE_TAP	209
T_JUDGE_HLD	228
T_JUDGE_SLD	4
T_JUDGE_ALL	441
TTM_EACHPAIRS	61
TTM_SCR_TAP	101500
TTM_SCR_BRK	15600
TTM_SCR_HLD	69000
TTM_SCR_SLD	6000
TTM_SCR_ALL	192100
TTM_SCR_S	185800
TTM_SCR_SS	191500
TTM_RAT_ACV	10031

