VERSION	0.00.00	1.03.00
FES_MODE	0
BPM_DEF	179.000	179.000	179.000	179.000
MET_DEF	4	4
RESOLUTION	384
CLK_DEF	384
COMPATIBLE_CODE	MA2

BPM	0	0	179.000
MET	0	0	4	4

HLD	1	0	3	528
HLD	3	0	2	528
HLD	5	0	1	528
HLD	7	0	0	528
TAP	9	0	7
TAP	9	192	7
TAP	10	0	7
TAP	10	192	7
TAP	11	0	6
TAP	11	192	6
TAP	12	0	6
TAP	12	192	6
TAP	13	0	5
TAP	13	192	5
TAP	14	0	5
TAP	14	192	5
TAP	15	0	4
TAP	15	192	4
TAP	16	0	4
TAP	16	192	3
TAP	16	192	4
TAP	17	0	3
TAP	17	192	3
TAP	18	0	3
TAP	18	192	3
TAP	19	0	2
TAP	19	192	2
TAP	20	0	2
TAP	20	192	2
TAP	21	0	1
TAP	21	192	1
TAP	22	0	1
TAP	22	192	1
TAP	23	0	0
TAP	23	192	0
TAP	24	0	0
TAP	24	192	0
TAP	24	192	7
TAP	25	0	7
TAP	25	96	7
TAP	25	192	7
TAP	26	0	0
TAP	26	0	6
TAP	26	192	0
TAP	26	192	6
TAP	27	0	0
TAP	27	96	0
TAP	27	192	0
TAP	28	0	1
TAP	28	0	7
TAP	28	192	1
TAP	28	192	7
TAP	29	0	7
TAP	29	96	7
TAP	29	192	7
TAP	30	0	0
TAP	30	0	6
TAP	30	192	0
TAP	30	192	6
STR	31	0	1
SI_	31	0	1	96	288	5
TAP	33	0	4
TAP	33	96	4
TAP	33	192	4
TAP	34	0	3
TAP	34	0	5
TAP	34	96	3
TAP	34	96	5
TAP	34	192	3
TAP	34	192	5
TAP	35	0	3
TAP	35	96	3
TAP	35	192	3
TAP	36	0	2
TAP	36	0	4
TAP	36	96	2
TAP	36	96	4
TAP	36	192	2
TAP	36	192	4
TAP	37	0	4
TAP	37	96	4
TAP	37	192	4
TAP	38	0	3
TAP	38	0	5
TAP	38	96	3
TAP	38	96	5
TAP	38	192	3
TAP	38	192	5
STR	39	0	2
SI_	39	0	2	96	288	6
BRK	41	0	7
TAP	41	96	7
TAP	41	192	5
TAP	41	288	5
TAP	42	0	4
TAP	42	96	4
TAP	42	192	3
TAP	42	192	4
TAP	43	0	0
TAP	43	96	0
TAP	43	192	2
TAP	43	288	2
TAP	44	0	3
TAP	44	96	3
TAP	44	192	3
TAP	44	192	4
TAP	45	0	7
TAP	45	96	7
TAP	45	192	5
TAP	45	288	5
TAP	46	0	3
TAP	46	0	4
TAP	46	96	3
TAP	46	96	4
TAP	46	192	3
TAP	46	192	4
TAP	47	0	0
TAP	47	96	0
TAP	47	192	2
TAP	47	288	2
TAP	48	0	3
TAP	48	0	4
TAP	48	96	3
TAP	48	96	4
TAP	48	192	3
TAP	48	192	4
BRK	49	0	4
TAP	49	96	4
TAP	49	192	6
TAP	49	288	6
TAP	50	0	7
TAP	50	96	7
TAP	50	192	0
TAP	50	192	7
TAP	51	0	3
TAP	51	96	3
TAP	51	192	1
TAP	51	288	1
TAP	52	0	0
TAP	52	96	0
TAP	52	192	0
TAP	52	192	7
TAP	53	0	4
TAP	53	96	4
TAP	53	192	6
TAP	53	288	6
TAP	54	0	7
TAP	54	96	7
TAP	54	192	0
TAP	54	288	0
TAP	55	0	2
TAP	55	96	2
TAP	55	192	3
TAP	55	288	3
TAP	56	0	3
TAP	56	0	4
TAP	56	96	3
TAP	56	96	4
TAP	56	192	2
TAP	56	192	5
STR	57	0	6
SI_	57	0	6	96	288	2
STR	59	0	1
SI_	59	0	1	96	288	5
STR	61	0	6
SI_	61	0	6	96	288	3
STR	63	0	1
SI_	63	0	1	96	288	4
TAP	65	0	5
TAP	65	192	5
HLD	66	0	5	144
TAP	67	0	6
TAP	67	192	6
HLD	68	0	6	144
TAP	69	0	7
TAP	69	192	7
HLD	70	0	7	144
TAP	71	0	0
TAP	71	192	0
HLD	72	0	0	192
TAP	72	192	7

T_REC_TAP	159
T_REC_BRK	2
T_REC_XTP	0
T_REC_HLD	8
T_REC_XHO	0
T_REC_STR	6
T_REC_BST	0
T_REC_XST	0
T_REC_TTP	0
T_REC_THO	0
T_REC_SLD	6
T_REC_ALL	181
T_NUM_TAP	165
T_NUM_BRK	2
T_NUM_HLD	8
T_NUM_SLD	6
T_NUM_ALL	181
T_JUDGE_TAP	167
T_JUDGE_HLD	57
T_JUDGE_SLD	6
T_JUDGE_ALL	230
TTM_EACHPAIRS	30
TTM_SCR_TAP	82500
TTM_SCR_BRK	5200
TTM_SCR_HLD	8000
TTM_SCR_SLD	9000
TTM_SCR_ALL	104700
TTM_SCR_S	101400
TTM_SCR_SS	104500
TTM_RAT_ACV	10019

