VERSION	0.00.00	1.03.00
FES_MODE	0
BPM_DEF	220.000	220.000	220.000	220.000
MET_DEF	4	4
RESOLUTION	384
CLK_DEF	384
COMPATIBLE_CODE	MA2

BPM	0	0	220.000
MET	0	0	4	4

HLD	2	0	0	1440
HLD	2	0	7	672
HLD	4	0	2	960
HLD	6	0	4	576
HLD	7	0	6	576
HLD	8	0	1	192
STR	9	0	0
SSL	9	0	0	96	144	4
STR	9	0	7
SSR	9	0	7	96	144	3
TAP	10	0	3
TAP	10	0	6
TAP	10	96	4
HLD	10	96	5	192
TAP	10	240	3
TAP	10	288	3
HLD	11	0	2	288
STR	11	0	5
SUL	11	0	5	96	192	3
TAP	12	0	1
TAP	12	0	4
HLD	12	96	2	192
TAP	12	96	3
TAP	12	240	4
TAP	12	288	4
STR	13	0	2
SUR	13	0	2	96	192	4
HLD	13	0	5	288
TAP	14	0	0
TAP	14	0	7
STR	14	48	0
SV_	14	48	0	96	48	1
TAP	14	48	7
STR	14	144	7
SV_	14	144	7	96	48	6
TAP	14	336	2
TAP	14	336	5
TAP	15	0	3
TAP	15	24	4
TAP	15	48	3
TAP	15	72	4
TAP	15	96	3
TAP	15	240	6
TAP	15	288	7
TAP	15	336	6
TAP	16	0	1
STR	16	48	0
SCL	16	48	0	96	48	5
TAP	16	96	1
STR	16	144	0
SCR	16	144	0	96	48	3
STR	16	240	0
SI_	16	240	0	96	48	5
STR	16	336	0
SI_	16	336	0	96	48	2
STR	17	48	0
SF_	17	48	0	96	144	4
BRK	18	0	1
BRK	18	0	6
TAP	18	96	5
STR	18	144	4
SI_	18	144	4	96	48	0
TAP	18	240	4
TAP	18	288	7
TAP	19	0	1
TAP	19	0	6
TAP	19	96	2
STR	19	144	3
SI_	19	144	3	96	48	7
TAP	19	240	3
TAP	19	288	0
TAP	20	0	1
TAP	20	0	6
TAP	20	96	5
STR	20	144	4
SI_	20	144	4	96	48	0
TAP	20	240	4
TAP	20	288	7
STR	21	0	1
SI_	21	0	1	96	48	4
TAP	21	48	0
TAP	21	96	1
STR	21	144	7
SI_	21	144	7	96	48	3
TAP	21	240	7
TAP	21	288	1
TAP	22	0	1
TAP	22	0	6
TAP	22	96	2
STR	22	144	3
SI_	22	144	3	96	48	6
TAP	22	240	3
TAP	22	288	0
TAP	23	0	1
TAP	23	0	6
TAP	23	96	5
STR	23	144	4
SI_	23	144	4	96	48	1
TAP	23	240	4
TAP	23	288	7
TAP	24	0	1
TAP	24	0	6
TAP	24	96	2
STR	24	144	3
SI_	24	144	3	96	48	6
TAP	24	240	3
TAP	24	288	0
STR	25	0	6
SCL	25	0	6	96	48	3
TAP	25	48	7
TAP	25	96	6
STR	25	144	0
SI_	25	144	0	96	48	4
TAP	25	240	0
TAP	25	288	6
TAP	26	0	0
TAP	26	0	7
TAP	26	96	5
STR	26	144	4
SCL	26	144	4	96	48	1
TAP	26	240	4
TAP	26	288	6
TAP	27	0	0
TAP	27	0	7
TAP	27	96	2
STR	27	144	3
SCR	27	144	3	96	48	6
TAP	27	240	3
TAP	27	288	1
TAP	28	0	0
TAP	28	0	7
TAP	28	96	5
STR	28	144	4
SCL	28	144	4	96	48	1
TAP	28	240	4
TAP	28	288	7
STR	29	0	1
SCR	29	0	1	96	48	4
TAP	29	48	0
TAP	29	96	1
STR	29	144	7
SUL	29	144	7	96	48	3
TAP	29	240	7
TAP	29	288	2
TAP	30	0	3
TAP	30	0	4
TAP	30	48	3
STR	30	48	4
SV_	30	48	4	96	48	5
STR	30	144	3
SV_	30	144	3	96	48	2
TAP	30	336	1
TAP	30	336	6
TAP	31	0	0
TAP	31	24	7
TAP	31	48	0
TAP	31	72	7
TAP	31	96	0
TAP	31	240	1
TAP	31	288	0
TAP	31	336	1
TAP	32	0	6
STR	32	48	7
SCR	32	48	7	96	48	2
TAP	32	96	6
STR	32	144	7
SCL	32	144	7	96	48	4
STR	32	240	7
SI_	32	240	7	96	48	2
STR	32	336	7
SI_	32	336	7	96	48	4
STR	33	48	7
SI_	33	48	7	96	48	1
TAP	33	144	7
TAP	33	192	6
TAP	33	216	5
TAP	33	240	4
TAP	33	264	3
TAP	33	288	2
TAP	33	312	1
TAP	33	336	0
TAP	33	360	7
TAP	34	0	1
TAP	34	0	6
STR	34	48	1
SCR	34	48	1	96	96	4
STR	34	144	4
SCR	34	144	4	96	96	7
STR	34	240	7
SCR	34	240	7	96	96	2
STR	34	336	2
SCR	34	336	2	96	96	5
STR	35	48	5
SUR	35	48	5	96	144	3
HLD	35	144	7	144
TAP	36	0	0
TAP	36	0	6
TAP	36	48	1
STR	36	48	6
SCL	36	48	6	96	96	3
TAP	36	96	2
TAP	36	96	6
STR	36	144	3
SCL	36	144	3	96	96	0
STR	36	240	0
SCL	36	240	0	96	96	5
STR	36	336	5
SCL	36	336	5	96	96	2
STR	37	48	2
SUL	37	48	2	96	144	4
HLD	37	144	0	144
TAP	38	0	0
TAP	38	0	4
STR	38	48	0
SCR	38	48	0	96	96	4
TAP	38	48	4
STR	38	144	4
SCR	38	144	4	96	96	0
STR	38	240	0
SCR	38	240	0	96	96	4
STR	38	336	4
SCR	38	336	4	96	96	0
STR	39	48	0
SSL	39	48	0	96	144	4
HLD	39	144	5	144
HLD	40	0	1	96
HLD	40	0	5	96
TAP	40	144	2
TAP	40	144	6
TAP	40	192	3
TAP	40	216	4
TAP	40	240	5
TAP	40	264	6
STR	40	288	7
SI_	40	288	7	96	48	3
TAP	40	312	0
STR	40	336	1
SI_	40	336	1	96	48	5
TAP	40	360	2
STR	41	144	4
SI_	41	144	4	96	48	1
SI_	41	144	4	96	48	7
TAP	41	240	4
TAP	42	0	0
TAP	42	0	4
STR	42	48	0
SCR	42	48	0	96	96	4
TAP	42	48	4
STR	42	144	4
SUR	42	144	4	96	96	0
STR	42	240	0
SUR	42	240	0	96	96	4
STR	42	336	4
SCR	42	336	4	96	96	0
STR	43	48	0
SUL	43	48	0	96	144	4
SUR	43	48	0	96	144	4
TAP	44	0	0
TAP	44	0	7
TAP	44	48	1
STR	44	48	7
SCL	44	48	7	96	96	3
TAP	44	96	2
TAP	44	96	7
STR	44	144	3
SUL	44	144	3	96	96	7
STR	44	240	7
SUL	44	240	7	96	96	3
STR	44	336	3
SCL	44	336	3	96	96	7
STR	45	48	7
SUL	45	48	7	96	144	3
SUR	45	48	7	96	144	3
TAP	46	0	0
TAP	46	0	4
STR	46	48	0
SCR	46	48	0	96	96	4
TAP	46	48	4
STR	46	144	4
SUR	46	144	4	96	96	0
STR	46	240	0
SUR	46	240	0	96	96	4
STR	46	336	4
SCR	46	336	4	96	96	0
STR	47	48	0
SF_	47	48	0	96	144	4
HLD	48	0	2	96
HLD	48	0	6	96
TAP	48	144	1
TAP	48	144	5
TAP	48	192	4
TAP	48	216	3
TAP	48	240	2
TAP	48	264	1
STR	48	288	0
SI_	48	288	0	96	48	4
TAP	48	312	7
STR	48	336	6
SI_	48	336	6	96	48	2
TAP	48	360	5
STR	49	144	3
SI_	49	144	3	96	48	0
SI_	49	144	3	96	48	6
TAP	49	240	3
STR	50	0	1
SCR	50	0	1	96	48	4
TAP	50	0	7
TAP	50	96	1
STR	50	144	7
SI_	50	144	7	96	48	3
TAP	50	240	7
TAP	50	288	2
TAP	51	0	0
STR	51	0	6
SCL	51	0	6	96	48	3
TAP	51	96	6
STR	51	144	0
SI_	51	144	0	96	48	4
TAP	51	240	0
TAP	51	288	5
STR	52	0	1
SCR	52	0	1	96	48	4
TAP	52	0	7
TAP	52	96	1
STR	52	144	7
SI_	52	144	7	96	48	3
TAP	52	240	7
TAP	52	288	2
STR	53	0	1
SI_	53	0	1	96	48	4
STR	53	48	0
SI_	53	48	0	96	48	5
TAP	53	96	1
TAP	53	144	0
TAP	53	240	4
TAP	53	288	3
TAP	53	288	6
TAP	54	0	0
STR	54	0	6
SCL	54	0	6	96	48	3
TAP	54	96	6
STR	54	144	0
SI_	54	144	0	96	48	4
TAP	54	240	0
TAP	54	288	5
STR	55	0	1
SCR	55	0	1	96	48	4
TAP	55	0	7
TAP	55	96	1
STR	55	144	7
SI_	55	144	7	96	48	3
TAP	55	240	7
TAP	55	288	2
TAP	56	0	0
STR	56	0	6
SCL	56	0	6	96	48	3
TAP	56	96	6
STR	56	144	0
SI_	56	144	0	96	48	4
TAP	56	240	0
TAP	56	288	5
STR	57	0	6
SI_	57	0	6	96	48	3
STR	57	48	7
SI_	57	48	7	96	48	2
TAP	57	96	6
TAP	57	144	7
TAP	57	240	3
TAP	57	288	1
TAP	57	288	4
STR	58	0	1
SCR	58	0	1	96	48	4
TAP	58	96	1
STR	58	144	7
SCR	58	144	7	96	48	2
TAP	58	240	7
TAP	58	288	3
STR	59	0	4
SI_	59	0	4	96	48	1
STR	59	48	5
SI_	59	48	5	96	48	0
TAP	59	96	4
TAP	59	144	5
TAP	59	240	1
TAP	59	288	2
TAP	59	288	7
STR	60	0	6
SCL	60	0	6	96	48	3
TAP	60	96	6
STR	60	144	0
SCL	60	144	0	96	48	5
TAP	60	240	0
TAP	60	288	4
STR	61	0	3
SI_	61	0	3	96	48	6
STR	61	48	2
SI_	61	48	2	96	48	7
TAP	61	96	3
TAP	61	144	2
TAP	61	240	6
TAP	61	288	0
TAP	61	288	5
TAP	62	0	0
TAP	62	0	7
STR	62	48	0
SV_	62	48	0	96	48	1
TAP	62	48	7
STR	62	144	7
SV_	62	144	7	96	48	6
TAP	62	336	2
TAP	62	336	5
TAP	63	0	3
TAP	63	24	4
TAP	63	48	3
TAP	63	72	4
TAP	63	96	3
TAP	63	240	6
TAP	63	288	7
TAP	63	336	6
TAP	64	0	1
STR	64	48	0
SCL	64	48	0	96	48	5
TAP	64	96	1
STR	64	144	0
SCR	64	144	0	96	48	3
STR	64	240	0
SI_	64	240	0	96	48	5
STR	64	336	0
SI_	64	336	0	96	48	3
STR	65	48	0
SI_	65	48	0	96	48	6
TAP	65	144	0
TAP	65	192	1
TAP	65	216	2
TAP	65	240	3
TAP	65	264	4
TAP	65	288	5
TAP	65	312	6
TAP	65	336	7
TAP	65	360	0
STR	66	0	1
SCR	66	0	1	96	1056	7
STR	66	0	6
SCL	66	0	6	96	1056	0
TAP	70	0	0
TAP	70	0	1
TAP	70	144	6
TAP	70	144	7
TAP	70	336	2
TAP	70	336	3
TAP	71	144	4
TAP	71	144	5
TAP	72	0	3
TAP	72	0	4
TAP	72	144	2
TAP	72	144	5
TAP	72	336	1
TAP	72	336	6
HLD	73	96	0	192
HLD	73	96	7	192
TAP	74	0	1
TAP	74	4	0
TAP	74	144	6
TAP	74	148	7
TAP	74	336	3
TAP	74	340	2
TAP	75	144	4
TAP	75	148	5
TAP	76	0	3
TAP	76	4	4
TAP	76	144	2
TAP	76	148	5
TAP	76	288	1
TAP	76	292	6
HLD	77	144	0	96
HLD	77	148	7	92
TAP	78	0	1
TAP	78	4	0
TAP	78	144	6
TAP	78	144	7
TAP	78	336	2
TAP	78	340	3
TAP	79	144	4
TAP	79	144	5
TAP	80	0	3
TAP	80	4	4
TAP	80	144	2
TAP	80	144	5
TAP	80	336	1
TAP	80	340	6
HLD	81	96	0	192
HLD	81	96	7	192
TAP	82	0	0
TAP	82	0	1
TAP	82	48	2
TAP	82	96	3
TAP	82	144	4
TAP	82	144	5
TAP	82	240	0
TAP	82	240	7
TAP	82	288	6
TAP	82	336	4
TAP	82	336	5
TAP	83	48	2
TAP	83	48	3
TAP	83	96	1
TAP	83	144	0
TAP	83	144	7
TAP	83	240	1
TAP	83	288	3
TAP	83	336	1
TAP	84	0	6
TAP	84	48	4
TAP	84	96	6
TAP	84	144	3
TAP	84	144	4
TAP	84	192	2
TAP	84	192	5
TAP	84	240	1
TAP	84	240	6
HLD	84	288	0	240
HLD	84	288	7	240
TAP	85	192	0
TAP	85	216	7
TAP	85	240	0
TAP	85	264	7
BRK	85	288	1
BRK	85	288	6
STR	86	0	1
SI_	86	0	1	96	48	4
STR	86	48	6
SI_	86	48	6	96	48	3
TAP	86	96	1
TAP	86	144	6
TAP	86	240	0
TAP	86	288	7
STR	86	336	6
SCL	86	336	6	96	48	4
TAP	87	0	0
TAP	87	48	6
STR	87	144	1
SCR	87	144	1	96	48	3
TAP	87	192	7
TAP	87	240	1
TAP	87	288	6
HLD	87	336	5	96
TAP	88	0	4
TAP	88	48	4
BRK	88	144	3
BRK	88	144	6
TAP	88	240	2
TAP	88	264	3
TAP	88	288	4
TAP	88	312	5
TAP	88	336	6
TAP	88	360	7
TAP	89	0	0
TAP	89	0	4
TAP	89	24	3
TAP	89	48	2
TAP	89	72	1
TAP	89	96	0
TAP	89	120	3
TAP	89	120	7
TAP	89	144	2
TAP	89	144	6
TAP	89	168	1
TAP	89	168	5
TAP	89	192	0
TAP	89	192	4
STR	89	240	3
SCR	89	240	3	96	48	6
STR	89	240	7
SCR	89	240	7	96	48	2
TAP	89	336	3
TAP	89	336	7
TAP	90	96	2
TAP	90	96	5
STR	90	144	3
SI_	90	144	3	96	48	0
STR	90	144	4
SI_	90	144	4	96	48	7
TAP	90	240	3
TAP	90	240	4
BRK	90	336	1
BRK	90	336	6
TAP	91	48	5
TAP	91	72	4
TAP	91	96	3
TAP	91	120	2
TAP	91	144	1
TAP	91	168	0
TAP	91	192	3
TAP	91	192	7
TAP	91	216	4
TAP	91	240	5
TAP	91	264	6
TAP	91	288	7
TAP	91	312	0
TAP	91	312	4
TAP	91	336	1
TAP	91	336	5
TAP	91	360	2
TAP	91	360	6
TAP	92	0	3
TAP	92	0	7
STR	92	48	0
SCL	92	48	0	96	48	5
STR	92	144	0
SCR	92	144	0	96	48	3
STR	92	240	0
SI_	92	240	0	96	48	5
TAP	92	336	0
TAP	93	48	2
TAP	93	72	3
TAP	93	96	4
TAP	93	120	5
TAP	93	144	6
TAP	93	168	7
TAP	93	192	0
TAP	93	192	4
TAP	93	216	3
TAP	93	240	2
TAP	93	264	1
TAP	93	288	0
TAP	93	312	7
TAP	93	336	6
TAP	93	360	5
TAP	94	0	1
TAP	94	0	4
TAP	94	48	2
TAP	94	72	3
TAP	94	96	2
TAP	94	144	1
TAP	94	144	6
TAP	94	192	5
TAP	94	216	4
TAP	94	240	5
TAP	94	288	3
TAP	94	312	4
TAP	94	336	3
TAP	94	360	4
TAP	95	0	2
TAP	95	0	5
TAP	95	48	6
TAP	95	72	7
TAP	95	96	6
TAP	95	144	2
TAP	95	144	5
TAP	95	192	1
TAP	95	216	0
TAP	95	240	1
TAP	95	288	7
TAP	95	312	0
TAP	95	336	7
TAP	95	360	0
TAP	96	0	1
TAP	96	0	6
TAP	96	48	5
TAP	96	72	4
TAP	96	96	5
TAP	96	120	4
TAP	96	144	6
TAP	96	192	2
TAP	96	216	3
TAP	96	240	2
TAP	96	264	3
TAP	96	288	1
STR	96	336	0
SI_	96	336	0	96	48	3
TAP	96	336	7
TAP	97	48	0
STR	97	48	7
SI_	97	48	7	96	48	2
STR	97	144	0
SI_	97	144	0	96	48	5
TAP	97	144	7
BRK	97	240	0
TAP	97	240	7
TAP	98	0	3
TAP	98	0	5
STR	98	48	3
SV_	98	48	3	96	48	2
TAP	98	48	5
STR	98	144	5
SV_	98	144	5	96	48	6
TAP	98	336	1
TAP	98	336	7
TAP	99	0	0
TAP	99	24	0
TAP	99	48	0
TAP	99	72	0
TAP	99	96	0
TAP	99	240	6
TAP	99	288	7
TAP	99	336	6
TAP	100	0	1
STR	100	48	0
SCL	100	48	0	96	48	5
TAP	100	96	1
STR	100	144	0
SCR	100	144	0	96	48	3
STR	100	240	0
SI_	100	240	0	96	48	5
STR	100	336	0
SI_	100	336	0	96	48	3
STR	101	48	0
SI_	101	48	0	96	48	6
TAP	101	144	0
TAP	101	192	1
TAP	101	216	2
TAP	101	240	3
TAP	101	264	4
TAP	101	288	5
TAP	101	312	6
TAP	101	336	7
TAP	101	360	0
TAP	102	0	1
STR	102	0	6
SCL	102	0	6	96	48	3
TAP	102	96	6
STR	102	144	0
SUR	102	144	0	96	48	4
TAP	102	240	0
TAP	102	288	7
TAP	102	336	6
STR	103	0	1
SCR	103	0	1	96	48	4
TAP	103	0	5
TAP	103	96	1
STR	103	144	7
SUL	103	144	7	96	48	3
TAP	103	240	7
TAP	103	288	0
TAP	103	336	1
TAP	104	0	2
STR	104	0	6
SCL	104	0	6	96	48	3
TAP	104	96	6
STR	104	144	0
SUR	104	144	0	96	48	4
TAP	104	240	0
TAP	104	288	7
TAP	104	336	6
STR	105	0	1
SCR	105	0	1	96	48	4
TAP	105	0	5
TAP	105	96	1
STR	105	144	7
SUL	105	144	7	96	48	3
TAP	105	240	7
TAP	105	288	0
TAP	105	336	1
TAP	106	0	2
TAP	106	0	3
STR	106	48	2
SV_	106	48	2	96	48	1
TAP	106	48	3
STR	106	144	3
SV_	106	144	3	96	48	4
TAP	106	336	0
TAP	106	336	5
TAP	107	0	6
TAP	107	24	7
TAP	107	48	6
TAP	107	72	7
TAP	107	96	6
TAP	107	240	2
TAP	107	288	3
TAP	107	336	2
TAP	108	0	5
STR	108	48	4
SCL	108	48	4	96	48	1
TAP	108	96	5
STR	108	144	4
SCR	108	144	4	96	48	7
STR	108	240	4
SI_	108	240	4	96	48	1
STR	108	336	4
SI_	108	336	4	96	48	7
STR	109	48	4
SI_	109	48	4	96	48	2
TAP	109	144	4
TAP	109	192	5
TAP	109	216	6
TAP	109	240	7
TAP	109	264	0
TAP	109	288	1
TAP	109	312	2
TAP	109	336	3
TAP	109	360	4
STR	110	0	1
SXL	110	0	1	96	480	1
STR	110	0	5
SXL	110	0	5	96	480	5
STR	112	0	1
SCR	112	0	1	96	480	4
STR	112	0	5
SUL	112	0	5	96	480	6
STR	114	0	4
SSL	114	0	4	96	480	0
STR	114	0	6
SCL	114	0	6	96	480	1
TAP	116	0	3
TAP	116	0	4
TAP	116	48	3
TAP	116	48	4
TAP	116	96	2
TAP	116	96	5
TAP	116	144	2
TAP	116	144	5
TAP	116	192	1
TAP	116	192	6
TAP	116	240	1
TAP	116	240	6
TAP	116	288	0
TAP	116	288	7
TAP	116	336	0
TAP	116	336	7
TAP	117	0	0
TAP	117	24	7
TAP	117	48	1
TAP	117	72	6
TAP	117	96	0
TAP	117	120	7
TAP	117	144	1
TAP	117	168	6
TAP	117	192	0
TAP	117	216	7
TAP	117	240	1
TAP	117	264	6
STR	117	288	0
SI_	117	288	0	96	48	4
SSL	117	288	0	96	48	4
TAP	117	312	7
TAP	117	336	1
TAP	117	360	6

T_REC_TAP	507
T_REC_BRK	9
T_REC_XTP	0
T_REC_HLD	26
T_REC_XHO	0
T_REC_STR	145
T_REC_BST	0
T_REC_XST	0
T_REC_TTP	0
T_REC_THO	0
T_REC_SLD	150
T_REC_ALL	837
T_NUM_TAP	652
T_NUM_BRK	9
T_NUM_HLD	26
T_NUM_SLD	150
T_NUM_ALL	837
T_JUDGE_TAP	661
T_JUDGE_HLD	161
T_JUDGE_SLD	150
T_JUDGE_ALL	972
TTM_EACHPAIRS	125
TTM_SCR_TAP	326000
TTM_SCR_BRK	23400
TTM_SCR_HLD	26000
TTM_SCR_SLD	225000
TTM_SCR_ALL	600400
TTM_SCR_S	581550
TTM_SCR_SS	599500
TTM_RAT_ACV	10015

