VERSION	0.00.00	1.03.00
FES_MODE	0
BPM_DEF	220.000	220.000	220.000	220.000
MET_DEF	4	4
RESOLUTION	384
CLK_DEF	384
COMPATIBLE_CODE	MA2

BPM	0	0	220.000
MET	0	0	4	4

STR	2	0	6
SUR	2	0	6	96	480	3
STR	4	0	2
SUR	4	0	2	96	480	7
HLD	6	0	6	192
HLD	6	192	5	192
HLD	7	0	4	192
HLD	7	192	3	192
HLD	8	0	2	192
HLD	8	192	1	192
STR	9	0	0
SSL	9	0	0	96	192	4
STR	10	0	2
SXR	10	0	2	96	480	7
TAP	10	0	6
TAP	12	0	2
STR	12	0	6
SXR	12	0	6	96	480	3
HLD	14	0	2	192
HLD	14	192	1	192
HLD	15	0	0	192
HLD	15	192	7	192
HLD	16	0	6	192
HLD	16	192	5	192
STR	17	0	4
SF_	17	0	4	96	96	0
TAP	18	0	2
TAP	18	0	6
TAP	18	96	4
TAP	18	288	4
TAP	19	0	2
TAP	19	0	3
TAP	19	96	2
TAP	19	144	3
TAP	19	240	3
TAP	19	288	2
TAP	20	0	0
TAP	20	0	6
TAP	20	96	7
TAP	20	288	7
TAP	21	0	0
TAP	21	0	1
TAP	21	96	1
TAP	21	144	0
TAP	21	240	0
TAP	21	288	1
HLD	22	0	6	192
TAP	22	96	7
HLD	22	192	0	192
TAP	22	288	7
HLD	23	0	5	192
TAP	23	96	7
HLD	23	192	1	192
TAP	23	288	7
HLD	24	0	4	192
TAP	24	96	7
HLD	24	192	2	192
TAP	24	288	7
STR	25	0	3
SSR	25	0	3	96	192	7
TAP	26	0	1
TAP	26	0	5
TAP	26	96	3
TAP	26	288	3
TAP	27	0	4
TAP	27	0	5
TAP	27	96	5
TAP	27	144	4
TAP	27	240	4
TAP	27	288	5
TAP	28	0	1
TAP	28	0	7
TAP	28	96	0
TAP	28	288	0
TAP	29	0	6
TAP	29	0	7
TAP	29	96	6
TAP	29	144	7
TAP	29	240	7
TAP	29	288	6
HLD	30	0	1	192
TAP	30	96	0
HLD	30	192	7	192
TAP	30	288	0
HLD	31	0	2	192
TAP	31	96	0
HLD	31	192	6	192
TAP	31	288	0
HLD	32	0	3	192
TAP	32	96	0
HLD	32	192	5	192
TAP	32	288	0
STR	33	0	4
SSL	33	0	4	96	192	0
TAP	34	0	7
STR	34	48	7
SI_	34	48	7	96	48	3
TAP	34	240	1
TAP	34	288	1
TAP	34	336	0
TAP	35	48	2
TAP	35	48	7
HLD	35	144	4	144
HLD	35	144	5	144
TAP	36	0	0
STR	36	48	0
SI_	36	48	0	96	48	4
TAP	36	240	6
TAP	36	288	6
TAP	36	336	7
TAP	37	48	0
TAP	37	48	5
HLD	37	144	2	144
HLD	37	144	3	144
TAP	38	0	7
STR	38	48	7
SI_	38	48	7	96	48	3
TAP	38	240	1
TAP	38	288	1
TAP	38	336	0
TAP	39	48	2
TAP	39	48	7
HLD	39	144	4	144
HLD	39	144	5	144
HLD	40	0	1	96
HLD	40	0	7	96
TAP	40	144	1
TAP	40	144	7
TAP	40	192	2
TAP	40	240	3
TAP	40	288	4
TAP	40	336	5
TAP	41	0	6
TAP	41	48	0
TAP	41	48	7
STR	41	144	1
SI_	41	144	1	96	48	4
STR	41	144	6
SI_	41	144	6	96	48	3
TAP	42	0	0
TAP	42	0	1
HLD	42	48	0	96
STR	42	48	1
SI_	42	48	1	96	48	5
TAP	42	240	0
TAP	42	288	0
TAP	42	336	1
TAP	42	336	7
TAP	43	48	4
TAP	43	48	5
HLD	43	144	1	144
HLD	43	144	2	144
TAP	44	0	6
TAP	44	0	7
STR	44	48	6
SI_	44	48	6	96	48	2
HLD	44	48	7	96
TAP	44	240	7
TAP	44	288	7
TAP	44	336	0
TAP	44	336	6
TAP	45	48	2
TAP	45	48	3
HLD	45	144	5	144
HLD	45	144	6	144
TAP	46	0	0
TAP	46	0	1
HLD	46	48	0	96
STR	46	48	1
SI_	46	48	1	96	48	5
TAP	46	240	0
TAP	46	288	0
TAP	46	336	1
TAP	46	336	7
TAP	47	48	4
TAP	47	48	5
HLD	47	144	1	144
HLD	47	144	2	144
HLD	48	0	0	96
HLD	48	0	6	96
TAP	48	144	0
TAP	48	144	6
TAP	48	192	5
TAP	48	240	4
TAP	48	288	3
TAP	48	336	2
TAP	49	0	1
TAP	49	48	0
TAP	49	48	7
STR	49	144	1
SI_	49	144	1	96	48	4
STR	49	144	6
SI_	49	144	6	96	48	3
HLD	50	0	0	384
STR	50	0	7
SI_	50	0	7	96	48	2
STR	50	192	3
SI_	50	192	3	96	48	6
TAP	51	0	7
TAP	51	96	2
TAP	51	96	4
TAP	51	144	3
TAP	51	240	3
TAP	51	288	2
TAP	51	288	4
STR	52	0	0
SI_	52	0	0	96	48	5
HLD	52	0	7	384
STR	52	192	4
SI_	52	192	4	96	48	1
TAP	53	0	0
TAP	53	96	3
TAP	53	96	5
TAP	53	144	4
TAP	53	240	4
TAP	53	288	3
TAP	53	288	5
STR	54	0	2
SCL	54	0	2	96	48	7
TAP	54	96	4
STR	54	192	4
SI_	54	192	4	96	48	0
TAP	54	288	3
STR	55	0	3
SI_	55	0	3	96	48	7
TAP	55	96	5
STR	55	192	5
SCR	55	192	5	96	48	0
TAP	55	288	2
STR	56	0	2
SCR	56	0	2	96	48	5
TAP	56	96	6
STR	56	192	6
SUL	56	192	6	96	48	1
TAP	56	288	0
STR	57	0	0
SCR	57	0	0	96	192	7
STR	58	0	3
SI_	58	0	3	96	48	6
HLD	58	0	4	384
STR	58	192	7
SI_	58	192	7	96	48	2
TAP	59	0	3
TAP	59	96	0
TAP	59	96	6
TAP	59	144	7
TAP	59	240	7
TAP	59	288	0
TAP	59	288	6
HLD	60	0	3	384
STR	60	0	4
SI_	60	0	4	96	48	1
STR	60	192	0
SI_	60	192	0	96	48	5
TAP	61	0	4
TAP	61	96	1
TAP	61	96	7
TAP	61	144	0
TAP	61	240	0
TAP	61	288	1
TAP	61	288	7
TAP	62	0	6
STR	62	48	6
SI_	62	48	6	96	48	3
STR	62	144	1
SI_	62	144	1	96	48	4
TAP	62	240	7
TAP	62	336	0
STR	62	336	7
SSR	62	336	7	96	96	3
TAP	63	0	0
TAP	63	0	7
TAP	63	240	0
TAP	63	240	4
TAP	63	288	2
TAP	63	288	6
TAP	64	0	0
TAP	64	0	7
TAP	64	96	1
STR	64	144	1
SI_	64	144	1	96	48	4
STR	64	240	6
SI_	64	240	6	96	48	3
TAP	64	336	0
TAP	65	0	0
TAP	65	48	7
STR	65	96	0
SSL	65	96	0	96	96	4
TAP	65	144	7
BST	66	0	2
SXR	66	0	2	96	1056	7
BST	66	0	6
SXR	66	0	6	96	1056	3
TAP	70	0	1
TAP	70	0	5
TAP	70	144	0
TAP	70	144	2
TAP	70	336	4
TAP	70	336	5
TAP	71	144	1
TAP	71	144	6
TAP	72	0	0
TAP	72	0	4
TAP	72	144	1
TAP	72	144	7
TAP	72	336	4
TAP	72	336	6
HLD	73	96	1	192
HLD	73	96	3	192
TAP	74	0	2
TAP	74	0	6
TAP	74	144	5
TAP	74	144	7
TAP	74	336	2
TAP	74	336	3
TAP	75	144	1
TAP	75	144	6
TAP	76	0	3
TAP	76	0	7
TAP	76	144	0
TAP	76	144	6
HLD	76	288	3	192
HLD	76	288	4	192
TAP	77	144	2
TAP	77	144	5
TAP	77	240	1
TAP	77	240	6
TAP	77	336	0
TAP	77	336	7
TAP	78	0	0
TAP	78	0	7
TAP	78	48	1
TAP	78	96	2
TAP	78	144	3
TAP	78	240	6
TAP	78	288	5
TAP	78	336	4
TAP	79	48	2
TAP	79	96	1
TAP	79	144	0
TAP	79	144	4
TAP	79	240	3
TAP	79	240	7
TAP	80	0	4
TAP	80	48	5
TAP	80	96	6
TAP	80	144	0
TAP	80	144	7
TAP	80	240	2
TAP	80	240	3
STR	80	336	4
SUR	80	336	4	96	192	3
STR	80	336	5
SCR	80	336	5	96	192	2
TAP	82	0	0
TAP	82	0	7
TAP	82	48	6
TAP	82	96	5
TAP	82	144	4
TAP	82	240	1
TAP	82	288	2
TAP	82	336	3
TAP	83	48	5
TAP	83	96	6
TAP	83	144	3
TAP	83	144	7
TAP	83	240	0
TAP	83	240	4
TAP	84	0	3
TAP	84	48	2
TAP	84	96	1
TAP	84	144	4
TAP	84	192	5
TAP	84	240	6
STR	84	288	0
SCR	84	288	0	96	120	3
STR	84	288	7
SCL	84	288	7	96	120	4
TAP	85	240	3
TAP	85	264	4
TAP	85	288	3
TAP	85	312	4
TAP	85	336	3
BST	86	0	6
SI_	86	0	6	96	48	2
TAP	86	96	7
STR	86	144	7
SCR	86	144	7	96	72	2
TAP	86	240	4
TAP	86	288	4
STR	87	0	1
SI_	87	0	1	96	48	5
TAP	87	96	0
STR	87	144	0
SCL	87	144	0	96	72	5
TAP	87	240	3
TAP	87	288	3
HLD	88	0	1	192
HLD	88	0	6	192
TAP	88	240	0
TAP	88	264	7
TAP	88	288	0
TAP	88	312	7
TAP	88	336	0
TAP	88	360	7
TAP	89	0	0
TAP	89	96	1
TAP	89	96	6
TAP	89	144	2
TAP	89	192	3
TAP	89	240	4
TAP	89	288	5
STR	89	336	6
SCR	89	336	6	96	48	1
TAP	90	144	3
TAP	90	192	4
TAP	90	240	3
TAP	90	336	2
TAP	90	336	5
TAP	91	48	5
TAP	91	96	6
TAP	91	144	7
TAP	91	192	0
TAP	91	240	1
TAP	91	288	2
TAP	91	336	3
TAP	92	0	4
STR	92	48	4
SI_	92	48	4	96	48	0
STR	92	144	3
SI_	92	144	3	96	48	7
STR	92	240	5
SCR	92	240	5	96	144	2
BRK	92	336	2
TAP	93	192	6
TAP	93	240	7
TAP	93	288	0
TAP	93	336	1
TAP	94	0	2
TAP	94	24	3
TAP	94	48	2
TAP	94	72	3
TAP	94	144	1
TAP	94	168	2
TAP	94	192	1
TAP	94	216	2
TAP	94	288	5
TAP	94	312	4
TAP	94	336	5
TAP	94	360	4
TAP	95	48	6
TAP	95	72	5
TAP	95	96	6
TAP	95	120	5
TAP	95	192	0
TAP	95	216	7
TAP	95	240	0
TAP	95	264	7
TAP	95	288	0
HLD	96	0	4	96
TAP	96	96	3
TAP	96	144	5
TAP	96	192	2
TAP	96	240	6
TAP	96	288	1
STR	96	336	7
SI_	96	336	7	96	48	3
STR	97	48	0
SI_	97	48	0	96	48	4
STR	97	144	6
SI_	97	144	6	96	48	3
STR	97	240	1
SI_	97	240	1	96	48	4
TAP	97	336	7
TAP	98	48	2
TAP	98	48	6
BST	98	144	0
SXL	98	144	0	96	336	3
BST	98	144	4
SXL	98	144	4	96	336	7
HLD	100	0	4	336
TAP	100	48	3
TAP	100	96	2
TAP	100	144	1
TAP	100	192	0
TAP	100	240	7
TAP	100	288	6
TAP	100	336	5
TAP	101	48	0
TAP	101	48	1
TAP	101	144	6
BST	101	144	7
SF_	101	144	7	96	48	3
HLD	102	0	1	384
STR	102	0	6
SI_	102	0	6	96	48	2
STR	102	192	3
SI_	102	192	3	96	48	7
TAP	103	0	6
TAP	103	96	1
TAP	103	96	4
TAP	103	144	2
TAP	103	144	3
TAP	103	240	6
TAP	103	240	7
TAP	103	288	0
TAP	103	288	5
STR	104	0	1
SI_	104	0	1	96	48	5
HLD	104	0	6	384
STR	104	192	4
SI_	104	192	4	96	48	0
TAP	105	0	1
TAP	105	96	3
TAP	105	96	6
TAP	105	144	4
TAP	105	144	5
TAP	105	240	0
TAP	105	240	1
TAP	105	288	2
TAP	105	288	7
TAP	106	0	1
STR	106	48	1
SI_	106	48	1	96	48	4
STR	106	144	6
SI_	106	144	6	96	48	3
TAP	106	240	0
STR	106	336	0
SSL	106	336	0	96	96	4
TAP	106	336	7
TAP	107	0	0
TAP	107	0	7
TAP	107	240	3
TAP	107	240	7
TAP	107	288	1
TAP	107	288	5
TAP	108	0	0
TAP	108	0	7
TAP	108	96	6
STR	108	144	6
SI_	108	144	6	96	48	3
STR	108	240	1
SI_	108	240	1	96	48	4
TAP	108	336	7
TAP	109	0	7
TAP	109	48	0
STR	109	96	7
SSR	109	96	7	96	96	3
TAP	109	144	0
STR	110	0	1
SXR	110	0	1	96	480	4
HLD	110	0	5	576
HLD	112	0	2	576
STR	112	0	6
SXL	112	0	6	96	480	3
HLD	114	0	5	192
HLD	114	192	4	192
HLD	115	0	3	192
HLD	115	192	2	192
TAP	116	0	1
TAP	116	48	1
TAP	116	96	0
TAP	116	144	0
TAP	116	192	7
TAP	116	240	7
TAP	116	288	6
TAP	116	336	6
TAP	117	0	3
TAP	117	24	4
TAP	117	48	3
TAP	117	72	4
TAP	117	96	3
TAP	117	120	4
TAP	117	144	3
TAP	117	192	2
TAP	117	192	5
TAP	117	240	1
TAP	117	240	6
BST	117	288	0
SUL	117	288	0	96	72	3
BST	117	288	7
SUR	117	288	7	96	72	4

T_REC_TAP	370
T_REC_BRK	1
T_REC_XTP	0
T_REC_HLD	63
T_REC_XHO	0
T_REC_STR	66
T_REC_BST	8
T_REC_XST	0
T_REC_TTP	0
T_REC_THO	0
T_REC_SLD	74
T_REC_ALL	582
T_NUM_TAP	436
T_NUM_BRK	9
T_NUM_HLD	63
T_NUM_SLD	74
T_NUM_ALL	582
T_JUDGE_TAP	445
T_JUDGE_HLD	267
T_JUDGE_SLD	74
T_JUDGE_ALL	786
TTM_EACHPAIRS	112
TTM_SCR_TAP	218000
TTM_SCR_BRK	23400
TTM_SCR_HLD	63000
TTM_SCR_SLD	111000
TTM_SCR_ALL	415400
TTM_SCR_S	402100
TTM_SCR_SS	414500
TTM_RAT_ACV	10021

