VERSION	0.00.00	1.03.00
FES_MODE	0
BPM_DEF	220.000	220.000	220.000	220.000
MET_DEF	4	4
RESOLUTION	384
CLK_DEF	384
COMPATIBLE_CODE	MA2

BPM	0	0	220.000
MET	0	0	4	4

TAP	10	0	0
STR	10	96	0
SI_	10	96	0	96	384	4
TAP	12	0	7
STR	12	96	7
SI_	12	96	7	96	384	3
HLD	14	0	2	192
TAP	14	96	3
HLD	14	192	4	192
TAP	14	288	3
TAP	15	0	2
TAP	15	48	2
TAP	15	96	3
TAP	15	288	2
TAP	15	288	5
HLD	16	0	5	192
TAP	16	96	4
HLD	16	192	3	192
TAP	16	288	4
TAP	17	0	5
TAP	17	48	5
TAP	17	96	4
TAP	18	0	2
TAP	18	96	2
TAP	18	96	3
TAP	18	192	2
TAP	18	288	2
TAP	18	288	3
TAP	19	0	5
TAP	19	96	4
TAP	19	192	4
TAP	19	192	5
TAP	20	0	5
TAP	20	96	4
TAP	20	96	5
TAP	20	192	5
TAP	20	288	4
TAP	20	288	5
TAP	21	0	2
TAP	21	96	3
TAP	21	192	2
TAP	21	192	3
TAP	22	0	2
TAP	22	96	2
TAP	22	96	3
TAP	22	192	2
TAP	22	288	2
TAP	22	288	3
TAP	23	0	5
TAP	23	96	4
TAP	23	96	5
TAP	23	192	5
TAP	23	288	4
TAP	23	288	5
TAP	24	0	2
TAP	24	96	2
TAP	24	96	3
TAP	24	192	5
TAP	24	288	4
TAP	24	288	5
TAP	25	0	3
TAP	25	96	3
TAP	25	96	4
TAP	25	192	2
TAP	25	192	5
TAP	26	0	6
TAP	26	96	6
TAP	26	96	7
TAP	26	192	6
TAP	26	288	6
TAP	26	288	7
TAP	27	0	1
TAP	27	96	0
TAP	27	192	0
TAP	27	192	1
TAP	28	0	1
TAP	28	96	0
TAP	28	96	1
TAP	28	192	1
TAP	28	288	0
TAP	28	288	1
TAP	29	0	6
TAP	29	96	7
TAP	29	192	6
TAP	29	192	7
HLD	30	0	6	192
TAP	30	96	7
HLD	30	192	0	192
TAP	30	288	7
TAP	31	0	6
TAP	31	48	6
TAP	31	96	7
TAP	31	288	1
TAP	31	288	6
HLD	32	0	1	192
TAP	32	96	0
HLD	32	192	7	192
TAP	32	288	0
TAP	33	0	1
TAP	33	48	1
TAP	33	96	0
TAP	33	192	7
TAP	33	288	6
STR	34	0	5
SCR	34	0	5	96	528	4
STR	36	0	2
SCL	36	0	2	96	528	3
STR	38	0	4
SUR	38	0	4	96	432	3
STR	40	0	2
SCL	40	0	2	96	480	5
STR	40	0	3
SUL	40	0	3	96	480	4
TAP	42	0	2
STR	42	96	2
SCL	42	96	2	96	432	5
TAP	44	0	5
STR	44	96	5
SCR	44	96	5	96	432	2
TAP	46	0	3
STR	46	96	3
SUL	46	96	3	96	432	4
STR	48	0	4
SUR	48	0	4	96	480	3
STR	48	0	5
SCR	48	0	5	96	480	2
TAP	50	0	5
TAP	50	96	4
TAP	50	96	5
TAP	50	192	5
TAP	50	288	4
TAP	50	288	5
TAP	51	0	2
TAP	51	96	2
TAP	51	96	3
TAP	51	192	2
TAP	51	192	3
TAP	52	0	2
TAP	52	96	2
TAP	52	96	3
TAP	52	192	2
TAP	52	288	2
TAP	52	288	3
TAP	53	0	5
TAP	53	96	4
TAP	53	96	5
TAP	53	192	4
TAP	53	192	5
TAP	54	0	5
TAP	54	96	4
TAP	54	96	5
TAP	54	192	5
TAP	54	288	4
TAP	54	288	5
TAP	55	0	2
TAP	55	96	2
TAP	55	96	3
TAP	55	192	2
TAP	55	288	2
TAP	55	288	3
TAP	56	0	5
TAP	56	96	4
TAP	56	96	5
TAP	56	192	2
TAP	56	288	2
TAP	56	288	3
TAP	57	0	4
TAP	57	96	3
TAP	57	96	4
TAP	57	192	2
TAP	57	192	5
TAP	58	0	1
TAP	58	96	0
TAP	58	96	1
TAP	58	192	1
TAP	58	288	0
TAP	58	288	1
TAP	59	0	6
TAP	59	96	6
TAP	59	96	7
TAP	59	192	6
TAP	59	192	7
TAP	60	0	6
TAP	60	96	6
TAP	60	96	7
TAP	60	192	6
TAP	60	288	6
TAP	60	288	7
TAP	61	0	1
TAP	61	96	0
TAP	61	96	1
TAP	61	192	0
TAP	61	192	1
HLD	62	0	1	192
TAP	62	96	0
HLD	62	192	7	192
TAP	62	288	0
TAP	63	0	1
TAP	63	48	1
TAP	63	96	0
TAP	63	96	1
TAP	63	288	0
TAP	63	288	7
HLD	64	0	6	192
TAP	64	96	7
HLD	64	192	0	192
TAP	64	288	7
TAP	65	0	6
TAP	65	48	6
TAP	65	96	6
TAP	65	96	7
TAP	65	192	0
TAP	65	288	1
HLD	66	0	2	1536
STR	70	0	3
SUR	70	0	3	96	576	6
STR	72	0	0
SUR	72	0	0	96	576	3
STR	74	0	4
SUL	74	0	4	96	576	1
TAP	74	0	5
STR	76	0	7
SUL	76	0	7	96	576	4
TAP	78	0	2
STR	78	0	3
SXR	78	0	3	96	576	7
STR	80	0	0
SCR	80	0	0	96	384	3
STR	80	0	7
SCL	80	0	7	96	384	4
HLD	82	0	6	192
TAP	82	96	5
HLD	82	192	3	192
TAP	82	288	4
TAP	83	0	6
TAP	83	48	6
TAP	83	96	4
TAP	83	96	6
TAP	83	288	3
TAP	83	288	4
HLD	84	0	1	192
TAP	84	96	2
HLD	84	192	4	192
TAP	84	288	3
STR	85	0	1
SI_	85	0	1	96	192	5
BRK	86	0	6
TAP	86	96	6
TAP	86	96	7
TAP	86	192	1
TAP	86	288	0
TAP	86	288	1
TAP	87	0	6
TAP	87	96	5
TAP	87	192	4
STR	87	288	3
SCL	87	288	3	96	192	7
TAP	89	0	6
TAP	89	96	5
TAP	89	192	4
TAP	89	240	4
TAP	89	288	3
TAP	89	288	4
TAP	90	0	1
TAP	90	96	0
TAP	90	96	1
TAP	90	192	6
TAP	90	288	6
TAP	90	288	7
TAP	91	0	1
TAP	91	96	2
TAP	91	192	3
STR	91	288	4
SCR	91	288	4	96	192	0
TAP	93	0	2
TAP	93	96	1
TAP	93	192	0
TAP	93	240	0
TAP	93	288	0
TAP	93	288	7
HLD	94	0	2	96
TAP	94	96	3
HLD	94	192	5	96
TAP	94	288	4
HLD	95	0	1	96
TAP	95	96	3
HLD	95	192	6	96
TAP	95	288	4
HLD	96	0	1	96
TAP	96	96	0
HLD	96	192	6	96
STR	96	288	7
SCR	96	288	7	96	288	3
HLD	98	0	6	192
TAP	98	96	5
HLD	98	192	3	192
TAP	98	288	4
TAP	99	0	6
TAP	99	48	6
TAP	99	96	4
TAP	99	96	6
TAP	99	192	3
TAP	99	192	4
TAP	99	288	1
TAP	99	288	3
HLD	100	0	1	192
TAP	100	96	2
HLD	100	192	4	192
TAP	100	288	3
TAP	101	0	2
TAP	101	48	2
TAP	101	96	0
TAP	101	96	1
TAP	101	192	5
TAP	101	240	5
TAP	101	288	6
TAP	101	288	7
TAP	102	0	5
TAP	102	96	4
TAP	102	96	5
TAP	102	192	5
TAP	102	240	5
TAP	102	288	4
TAP	102	288	5
TAP	103	0	2
TAP	103	96	2
TAP	103	96	3
TAP	103	192	2
TAP	103	240	2
TAP	103	288	2
TAP	103	288	3
TAP	104	0	5
TAP	104	96	4
TAP	104	96	5
TAP	104	192	5
TAP	104	240	5
TAP	104	288	4
TAP	104	288	5
TAP	105	0	2
TAP	105	96	2
TAP	105	96	3
TAP	105	192	2
TAP	105	240	2
TAP	105	288	2
TAP	105	288	3
HLD	106	0	6	192
TAP	106	96	4
HLD	106	192	3	192
TAP	106	288	5
TAP	107	0	6
TAP	107	48	6
TAP	107	96	4
TAP	107	96	6
TAP	107	192	3
TAP	107	192	4
TAP	107	288	1
TAP	107	288	3
HLD	108	0	1	192
TAP	108	96	3
HLD	108	192	4	192
TAP	108	288	2
TAP	109	0	1
TAP	109	48	1
TAP	109	96	0
TAP	109	96	1
TAP	109	192	6
TAP	109	240	6
TAP	109	288	6
TAP	109	288	7
STR	110	0	0
SCR	110	0	0	96	576	6
TAP	110	0	7
STR	112	0	7
SCL	112	0	7	96	576	1
STR	114	0	0
SSL	114	0	0	96	576	4
HLD	116	0	6	192
TAP	116	96	5
HLD	116	192	3	192
TAP	116	288	4
TAP	117	0	5
TAP	117	48	5
TAP	117	96	4
TAP	117	96	6
TAP	117	192	3
TAP	117	192	7
TAP	117	288	0
TAP	117	288	2
BRK	118	0	1

T_REC_TAP	302
T_REC_BRK	2
T_REC_XTP	0
T_REC_HLD	33
T_REC_XHO	0
T_REC_STR	26
T_REC_BST	0
T_REC_XST	0
T_REC_TTP	0
T_REC_THO	0
T_REC_SLD	26
T_REC_ALL	389
T_NUM_TAP	328
T_NUM_BRK	2
T_NUM_HLD	33
T_NUM_SLD	26
T_NUM_ALL	389
T_JUDGE_TAP	330
T_JUDGE_HLD	148
T_JUDGE_SLD	26
T_JUDGE_ALL	504
TTM_EACHPAIRS	84
TTM_SCR_TAP	164000
TTM_SCR_BRK	5200
TTM_SCR_HLD	33000
TTM_SCR_SLD	39000
TTM_SCR_ALL	241200
TTM_SCR_S	233800
TTM_SCR_SS	241000
TTM_RAT_ACV	10008

